Author: nvtuan86 Language: text
Description: Not specified Timestamp: 2017-12-29 23:52:59 +0000
View raw paste Reply
  1. General
  2. Unique ID                                : 188643638130535677551918620048391472820 (0x8DEB71723CC830B23F6A2C36F04906B4)
  3. Complete name                            : D:\VietHD\Satyam Shivam Sundaram 1978 720p BluRay DD5.1 x264-VietHD\Satyam Shivam Sundaram 1978 720p BluRay DD5.1 x264-VietHD.mkv
  4. Format                                   : Matroska
  5. Format version                           : Version 4 / Version 2
  6. File size                                : 10.3 GiB
  7. Duration                                 : 2h 51mn
  8. Overall bit rate                         : 8 639 Kbps
  9. Encoded date                             : UTC 2017-12-29 23:20:16
  10. Writing application                      : mkvmerge v19.0.0 ('Brave Captain') 64-bit
  11. Writing library                          : libebml v1.3.5 + libmatroska v1.4.8
  12.  
  13. Video
  14. ID                                       : 1
  15. Format                                   : AVC
  16. Format/Info                              : Advanced Video Codec
  17. Format profile                           : High@L4.1
  18. Format settings, CABAC                   : Yes
  19. Format settings, ReFrames                : 9 frames
  20. Codec ID                                 : V_MPEG4/ISO/AVC
  21. Duration                                 : 2h 51mn
  22. Bit rate                                 : 8 000 Kbps
  23. Width                                    : 1 280 pixels
  24. Height                                   : 720 pixels
  25. Display aspect ratio                     : 16:9
  26. Frame rate mode                          : Constant
  27. Frame rate                               : 24.000 fps
  28. Color space                              : YUV
  29. Chroma subsampling                       : 4:2:0
  30. Bit depth                                : 8 bits
  31. Scan type                                : Progressive
  32. Bits/(Pixel*Frame)                       : 0.362
  33. Stream size                              : 9.55 GiB (93%)
  34. Writing library                          : x264 core 155 r2893 b00bcaf
  35. Encoding settings                        : cabac=1 / ref=9 / deblock=1:-3:-3 / analyse=0x3:0x133 / me=umh / subme=10 / psy=1 / psy_rd=1.10:0.00 / mixed_ref=1 / me_range=24 / chroma_me=1 / trellis=2 / 8x8dct=1 / cqm=0 / deadzone=21,11 / fast_pskip=0 / chroma_qp_offset=-2 / threads=12 / lookahead_threads=2 / sliced_threads=0 / nr=0 / decimate=0 / interlaced=0 / bluray_compat=0 / constrained_intra=0 / bframes=9 / b_pyramid=2 / b_adapt=2 / b_bias=0 / direct=3 / weightb=1 / open_gop=0 / weightp=2 / keyint=250 / keyint_min=24 / scenecut=40 / intra_refresh=0 / rc_lookahead=60 / rc=2pass / mbtree=0 / bitrate=8000 / ratetol=1.0 / qcomp=0.60 / qpmin=0 / qpmax=69 / qpstep=4 / cplxblur=20.0 / qblur=0.5 / vbv_maxrate=62500 / vbv_bufsize=78125 / nal_hrd=none / filler=0 / ip_ratio=1.30 / pb_ratio=1.20 / aq=3:0.65
  36. Language                                 : Hindi
  37. Default                                  : Yes
  38. Forced                                   : No
  39. Color range                              : Limited
  40. Matrix coefficients                      : BT.709
  41.  
  42. Audio
  43. ID                                       : 2
  44. Format                                   : AC-3
  45. Format/Info                              : Audio Coding 3
  46. Mode extension                           : CM (complete main)
  47. Format settings, Endianness              : Big
  48. Codec ID                                 : A_AC3
  49. Duration                                 : 2h 51mn
  50. Bit rate mode                            : Constant
  51. Bit rate                                 : 640 Kbps
  52. Channel(s)                               : 6 channels
  53. Channel positions                        : Front: L C R, Side: L R, LFE
  54. Sampling rate                            : 48.0 KHz
  55. Frame rate                               : 31.250 fps (1536 spf)
  56. Compression mode                         : Lossy
  57. Stream size                              : 783 MiB (7%)
  58. Language                                 : Hindi
  59. Default                                  : Yes
  60. Forced                                   : No
  61.  
  62. Text
  63. ID                                       : 3
  64. Format                                   : UTF-8
  65. Codec ID                                 : S_TEXT/UTF8
  66. Codec ID/Info                            : UTF-8 Plain Text
  67. Duration                                 : 2h 49mn
  68. Bit rate                                 : 41 bps
  69. Count of elements                        : 1560
  70. Stream size                              : 50.8 KiB (0%)
  71. Language                                 : English
  72. Default                                  : No
  73. Forced                                   : No
  74.  
  75. Menu
  76. 00:00:00.000                             : en:00:00:00.000
  77. 00:01:33.000                             : en:00:01:33.000
  78. 00:03:29.000                             : en:00:03:29.000
  79. 00:05:16.000                             : en:00:05:16.000
  80. 00:06:35.000                             : en:00:06:35.000
  81. 00:11:08.000                             : en:00:11:08.000
  82. 00:14:58.000                             : en:00:14:58.000
  83. 00:20:58.000                             : en:00:20:58.000
  84. 00:24:46.000                             : en:00:24:46.000

This paste is large and only partially shown.
View full paste

View raw paste Reply