Slexy.org is shutting down and stopped accepting new Pastes on May 4th, 2021.
Existing Pastes will stop being available on or after May 10th, 2021.
Author: Not specified Language: text
Description: Not specified Timestamp: 2021-04-08 07:33:38 +0000
View raw paste Reply
  1. General
  2. Unique ID                   : 61745541125947841097762823521407700240 (0x2E73C23774A3B283AFE780C95F558D10)
  3. Complete name               : Batman.v.Superman.Dawn.of.Justice.2016.Remastered.2160p.UHD.BluRay.x265.HDR.DD+7.1.5.1.Atmos-Pahe.in.mkv
  4. Format                      : Matroska
  5. Format version              : Version 4
  6. File size                   : 13.8 GiB
  7. Duration                    : 3 h 2 min
  8. Overall bit rate            : 10.8 Mb/s
  9. Movie name                  : Batman v Superman: Dawn of Justice 4K IMAX HDR10 - Pahe.in
  10. Encoded date                : UTC 2021-04-04 03:14:15
  11. Writing application         : mkvmerge v51.0.0 ('I Wish') 64-bit
  12. Writing library             : libebml v1.4.0 + libmatroska v1.6.2
  13. Cover                       : Yes
  14. Attachments                 : cover.jpg
  15. Encoded by                  : Pahe.in™ Team
  16. Notes                       : If you wish to share this release, please keep everything intact including the file names
  17. Official Site               : https://pahe.ph
  18.  
  19. Video
  20. ID                          : 1
  21. Format                      : HEVC
  22. Format/Info                 : High Efficiency Video Coding
  23. Format profile              : Main 10@L5.1@High
  24. HDR format                  : SMPTE ST 2086, HDR10 compatible
  25. Codec ID                    : V_MPEGH/ISO/HEVC
  26. Duration                    : 3 h 2 min
  27. Bit rate                    : 8 500 kb/s
  28. Width                       : 3 840 pixels
  29. Height                      : 2 160 pixels
  30. Display aspect ratio        : 16:9
  31. Frame rate mode             : Constant
  32. Frame rate                  : 23.976 (24000/1001) FPS
  33. Color space                 : YUV
  34. Chroma subsampling          : 4:2:0 (Type 2)
  35. Bit depth                   : 10 bits
  36. Bits/(Pixel*Frame)          : 0.043
  37. Stream size                 : 10.8 GiB (79%)
  38. Writing library             : x265 3.4+6-g73f96ff39:[Windows][GCC 11.0.0][64 bit] 10bit
  39. Default                     : Yes
  40. Forced                      : No
  41. Color range                 : Limited
  42. Color primaries             : BT.2020
  43. Transfer characteristics    : PQ
  44. Matrix coefficients         : BT.2020 non-constant
  45. Mastering display color pri : Display P3
  46. Mastering display luminance : min: 0.0050 cd/m2, max: 4000 cd/m2
  47. Maximum Content Light Level : 699 cd/m2
  48. Maximum Frame-Average Light : 530 cd/m2
  49.  
  50. Audio #1
  51. ID                          : 2
  52. Format                      : E-AC-3
  53. Format/Info                 : Enhanced AC-3
  54. Commercial name             : Dolby Digital Plus
  55. Format profile              : Blu-ray Disc
  56. Codec ID                    : A_EAC3
  57. Duration                    : 3 h 2 min
  58. Bit rate mode               : Constant
  59. Bit rate                    : 1 280 kb/s
  60. Channel(s)                  : 8 channels
  61. Channel layout              : L R C LFE Ls Rs Lb Rb
  62. Sampling rate               : 48.0 kHz
  63. Frame rate                  : 31.250 FPS (1536 SPF)
  64. Compression mode            : Lossy
  65. Stream size                 : 1.63 GiB (12%)
  66. Title                       : Dolby Digital Plus 7.1 from TrueHD
  67. Language                    : English
  68. Service kind                : Complete Main
  69. Default                     : No
  70. Forced                      : No
  71.  
  72. Audio #2
  73. ID                          : 3
  74. Format                      : AC-3
  75. Format/Info                 : Audio Coding 3
  76. Commercial name             : Dolby Digital
  77. Codec ID                    : A_AC3
  78. Duration                    : 3 h 2 min
  79. Bit rate mode               : Constant
  80. Bit rate                    : 192 kb/s
  81. Channel(s)                  : 2 channels
  82. Channel layout              : L R
  83. Sampling rate               : 48.0 kHz
  84. Frame rate                  : 31.250 FPS (1536 SPF)
  85. Compression mode            : Lossy
  86. Stream size                 : 251 MiB (2%)
  87. Title                       : Commentary by Director Zack Snyder
  88. Language                    : English
  89. Service kind                : Complete Main
  90. Default                     : No
  91. Forced                      : No
  92.  
  93. Audio #3
  94. ID                          : 4
  95. Format                      : E-AC-3 JOC
  96. Format/Info                 : Enhanced AC-3 with Joint Object Coding
  97. Commercial name             : Dolby Digital Plus with Dolby Atmos
  98. Codec ID                    : A_EAC3
  99. Duration                    : 3 h 2 min
  100. Bit rate mode               : Constant
  101. Bit rate                    : 768 kb/s
  102. Channel(s)                  : 6 channels
  103. Channel layout              : L R C LFE Ls Rs
  104. Sampling rate               : 48.0 kHz
  105. Frame rate                  : 31.250 FPS (1536 SPF)
  106. Compression mode            : Lossy
  107. Delay relative to video     : 1 s 52 ms
  108. Stream size                 : 1 003 MiB (7%)
  109. Title                       : Dolby Atmos 5.1
  110. Service kind                : Complete Main
  111. Default                     : Yes
  112. Forced                      : Yes
  113. Complexity index            : 16
  114. Number of dynamic objects   : 15
  115. Bed channel count           : 1 channel
  116. Bed channel configuration   : LFE
  117.  
  118. Text #1
  119. ID                          : 5
  120. Format                      : PGS
  121. Muxing mode                 : zlib
  122. Codec ID                    : S_HDMV/PGS

This paste is large and only partially shown.
View full paste

View raw paste Reply