Author: Not specified Language: text
Description: Not specified Timestamp: 2018-07-05 04:45:23 +0000
View raw paste Reply
  1. General
  2. Unique ID                   : 199750208561018052308861721377880630474 (0x96467DA57F19F1FBBCFEA89B66BF64CA)
  3. Complete name               : E:\Ready.Player.One.2018.1080p.BluRay.x264.DD5.1-Pahe.in.mkv
  4. Format                      : Matroska
  5. Format version              : Version 4 / Version 2
  6. File size                   : 3.09 GiB
  7. Duration                    : 2 h 19 min
  8. Overall bit rate            : 3 164 kb/s
  9. Movie name                  : Ready Player One (2018) - Pahe.in
  10. Encoded date                : UTC 2018-07-04 20:05:06
  11. Writing application         : mkvmerge v15.0.0 ('Duel with the Devil') 64-bit
  12. Writing library             : libebml v1.3.5 + libmatroska v1.4.5
  13. Cover                       : Yes
  14. Attachments                 : cover.jpg
  15. Encoded by                  : Pahe.inĀ® Team
  16.  
  17. Video
  18. ID                          : 1
  19. Format                      : AVC
  20. Format/Info                 : Advanced Video Codec
  21. Format profile              : High@L4.1
  22. Format settings             : CABAC / 5 Ref Frames
  23. Format settings, CABAC      : Yes
  24. Format settings, ReFrames   : 5 frames
  25. Codec ID                    : V_MPEG4/ISO/AVC
  26. Duration                    : 2 h 19 min
  27. Bit rate                    : 2 767 kb/s
  28. Width                       : 1 920 pixels
  29. Height                      : 804 pixels
  30. Display aspect ratio        : 2.40:1
  31. Frame rate mode             : Constant
  32. Frame rate                  : 23.976 (24000/1001) FPS
  33. Color space                 : YUV
  34. Chroma subsampling          : 4:2:0
  35. Bit depth                   : 8 bits
  36. Scan type                   : Progressive
  37. Bits/(Pixel*Frame)          : 0.075
  38. Stream size                 : 2.71 GiB (87%)
  39. Title                       : https://pahe.in
  40. Writing library             : x264 core 152 r2851 ba24899
  41. Encoding settings           : cabac=1 / ref=5 / deblock=1:-3:-3 / analyse=0x3:0x133 / me=umh / subme=10 / psy=1 / psy_rd=1.00:0.15 / mixed_ref=1 / me_range=48 / chroma_me=1 / trellis=2 / 8x8dct=1 / cqm=0 / deadzone=21,11 / fast_pskip=0 / chroma_qp_offset=-3 / threads=18 / lookahead_threads=3 / sliced_threads=0 / nr=0 / decimate=0 / interlaced=0 / bluray_compat=0 / constrained_intra=0 / bframes=8 / b_pyramid=2 / b_adapt=2 / b_bias=0 / direct=3 / weightb=1 / open_gop=0 / weightp=2 / keyint=250 / keyint_min=23 / scenecut=40 / intra_refresh=0 / rc_lookahead=60 / rc=crf / mbtree=0 / crf=26.0 / qcomp=0.60 / qpmin=0 / qpmax=69 / qpstep=4 / vbv_maxrate=29500 / vbv_bufsize=27000 / crf_max=0.0 / nal_hrd=none / filler=0 / ip_ratio=1.30 / pb_ratio=1.20 / aq=3:1.00
  42. Default                     : Yes
  43. Forced                      : No
  44.  
  45. Audio
  46. ID                          : 2
  47. Format                      : AC-3
  48. Format/Info                 : Audio Coding 3
  49. Codec ID                    : A_AC3
  50. Duration                    : 2 h 19 min
  51. Bit rate mode               : Constant
  52. Bit rate                    : 384 kb/s
  53. Channel(s)                  : 6 channels
  54. Channel positions           : Front: L C R, Side: L R, LFE
  55. Sampling rate               : 48.0 kHz
  56. Frame rate                  : 31.250 FPS (1536 SPF)
  57. Bit depth                   : 16 bits
  58. Compression mode            : Lossy
  59. Stream size                 : 384 MiB (12%)
  60. Language                    : English
  61. Service kind                : Complete Main
  62. Default                     : No
  63. Forced                      : No
  64.  
  65. Text #1
  66. ID                          : 3
  67. Format                      : PGS
  68. Muxing mode                 : zlib
  69. Codec ID                    : S_HDMV/PGS
  70. Codec ID/Info               : Picture based subtitle format used on BDs/HD-DVDs
  71. Duration                    : 2 h 18 min
  72. Bit rate                    : 36.3 kb/s
  73. Count of elements           : 3682
  74. Stream size                 : 36.1 MiB (1%)
  75. Language                    : English
  76. Default                     : Yes
  77. Forced                      : No
  78.  
  79. Text #2
  80. ID                          : 4
  81. Format                      : UTF-8
  82. Codec ID                    : S_TEXT/UTF8
  83. Codec ID/Info               : UTF-8 Plain Text
  84. Duration                    : 2 h 9 min
  85. Bit rate                    : 58 b/s
  86. Count of elements           : 1611
  87. Stream size                 : 54.9 KiB (0%)
  88. Language                    : English
  89. Default                     : No
  90. Forced                      : No
  91.  
  92. Menu
  93. 00:00:00.000                : en:Chapter 1
  94. 00:10:08.233                : en:Chapter 2
  95. 00:20:18.259                : en:Chapter 3
  96. 00:30:37.627                : en:Chapter 4
  97. 00:40:38.269                : en:Chapter 5
  98. 00:50:08.964                : en:Chapter 6
  99. 01:03:01.778                : en:Chapter 7
  100. 01:11:55.269                : en:Chapter 8
  101. 01:20:14.727                : en:Chapter 9
  102. 01:30:58.328                : en:Chapter 10
  103. 01:43:26.742                : en:Chapter 11
  104. 01:53:02.150                : en:Chapter 12
  105. 02:04:20.161                : en:Chapter 13
  106. 02:09:17.249                : en:Chapter 14
  107.  
View raw paste Reply