Author: Not specified Language: text
Description: Not specified Timestamp: 2013-06-17 07:49:38 +0000
View raw paste Reply
  1. Exact Audio Copy V1.0 beta 3 from 29. August 2011
  2.  
  3. EAC extraction logfile from 13. November 2011, 22:00
  4.  
  5. Marc Anthony / Marc Anthony
  6.  
  7. Used drive  : ASUS    DRW-24B3LT   Adapter: 0  ID: 1
  8.  
  9. Read mode               : Secure
  10. Utilize accurate stream : Yes
  11. Defeat audio cache      : Yes
  12. Make use of C2 pointers : No
  13.  
  14. Read offset correction                      : 6
  15. Overread into Lead-In and Lead-Out          : No
  16. Fill up missing offset samples with silence : Yes
  17. Delete leading and trailing silent blocks   : No
  18. Null samples used in CRC calculations       : Yes
  19. Used interface                              : Native Win32 interface for Win NT & 2000
  20. Gap handling                                : Appended to previous track
  21.  
  22. Used output format              : User Defined Encoder
  23. Selected bitrate                : 1024 kBit/s
  24. Quality                         : High
  25. Add ID3 tag                     : No
  26. Command line compressor         : C:\Program Files (x86)\Exact Audio Copy\Flac\flac.exe
  27. Additional command line options : -8 -V -T "ARTIST=%artist%" -T "TITLE=%title%" -T "ALBUM=%albumtitle%" -T "DATE=%year%" -T "TRACKNUMBER=%tracknr%" -T "TOTALTRACKS=%numtracks%" -T "GENRE=%genre%" -T "ALBUM ARTIST=%albumartist%" -T "COMMENT=overkill-MFt, EAC V1.0 beta 3 Secure Mode, Test & Copy, AccurateRip, FLAC -8" %source%
  28.  
  29.  
  30. TOC of the extracted CD
  31.  
  32.      Track |   Start  |  Length  | Start sector | End sector
  33.     ---------------------------------------------------------
  34.         1  |  0:00.00 |  4:21.00 |         0    |    19574  
  35.         2  |  4:21.00 |  4:24.12 |     19575    |    39386  
  36.         3  |  8:45.12 |  3:48.35 |     39387    |    56521  
  37.         4  | 12:33.47 |  5:48.50 |     56522    |    82671  
  38.         5  | 18:22.22 |  3:59.20 |     82672    |   100616  
  39.         6  | 22:21.42 |  4:41.25 |    100617    |   121716  
  40.         7  | 27:02.67 |  4:28.40 |    121717    |   141856  
  41.         8  | 31:31.32 |  4:41.55 |    141857    |   162986  
  42.         9  | 36:13.12 |  4:50.08 |    162987    |   184744  
  43.        10  | 41:03.20 |  3:48.10 |    184745    |   201854  
  44.        11  | 44:51.30 |  4:20.65 |    201855    |   221419  
  45.        12  | 49:12.20 |  4:30.62 |    221420    |   241731  
  46.        13  | 53:43.07 |  3:48.33 |    241732    |   258864  
  47.        14  | 57:31.40 |  4:20.45 |    258865    |   278409  
  48.        15  | 61:52.10 | 10:01.59 |    278410    |   323543  
  49.  
  50.  
  51. Track  1
  52.  
  53.      Filename H:\Lossless Music\EAC\Marc Anthony - Marc Anthony (1999) [FLAC]\01 - When I Dream At Night.wav
  54.  
  55.      Pre-gap length  0:00:02.00
  56.  
  57.      Peak level 99.7 %
  58.      Extraction speed 3.9 X
  59.      Track quality 100.0 %
  60.      Test CRC 64640B9B
  61.      Copy CRC 64640B9B
  62.      Accurately ripped (confidence 1)  [EEBE0530]  (AR v1)
  63.      Copy OK
  64.  
  65. Track  2
  66.  
  67.      Filename H:\Lossless Music\EAC\Marc Anthony - Marc Anthony (1999) [FLAC]\02 - Am I The Only One.wav
  68.  
  69.      Peak level 99.9 %
  70.      Extraction speed 4.4 X
  71.      Track quality 100.0 %
  72.      Test CRC 72E36948
  73.      Copy CRC 72E36948
  74.      Accurately ripped (confidence 1)  [497E2854]  (AR v1)
  75.      Copy OK
  76.  
  77. Track  3
  78.  
  79.      Filename H:\Lossless Music\EAC\Marc Anthony - Marc Anthony (1999) [FLAC]\03 - I Need To Know.wav
  80.  
  81.      Peak level 99.9 %
  82.      Extraction speed 4.6 X
  83.      Track quality 100.0 %
  84.      Test CRC 2AE3CE13
  85.      Copy CRC 2AE3CE13
  86.      Accurately ripped (confidence 1)  [94CBD747]  (AR v1)
  87.      Copy OK
  88.  
  89. Track  4
  90.  
  91.      Filename H:\Lossless Music\EAC\Marc Anthony - Marc Anthony (1999) [FLAC]\04 - You Sang To Me.wav
  92.  
  93.      Peak level 99.9 %
  94.      Extraction speed 5.2 X
  95.      Track quality 100.0 %
  96.      Test CRC 512894D7
  97.      Copy CRC 512894D7
  98.      Accurately ripped (confidence 1)  [4E1983F7]  (AR v1)
  99.      Copy OK
  100.  
  101. Track  5
  102.  
  103.      Filename H:\Lossless Music\EAC\Marc Anthony - Marc Anthony (1999) [FLAC]\05 - My Baby You.wav
  104.  
  105.      Peak level 99.9 %
  106.      Extraction speed 5.4 X
  107.      Track quality 100.0 %
  108.      Test CRC 14051536
  109.      Copy CRC 14051536
  110.      Accurately ripped (confidence 1)  [729629FC]  (AR v1)
  111.      Copy OK
  112.  
  113. Track  6
  114.  
  115.      Filename H:\Lossless Music\EAC\Marc Anthony - Marc Anthony (1999) [FLAC]\06 - No One.wav
  116.  
  117.      Peak level 99.9 %
  118.      Extraction speed 5.8 X
  119.      Track quality 100.0 %
  120.      Test CRC 86D16FA8
  121.      Copy CRC 86D16FA8
  122.      Accurately ripped (confidence 1)  [046A0629]  (AR v1)
  123.      Copy OK
  124.  
  125. Track  7
  126.  
  127.      Filename H:\Lossless Music\EAC\Marc Anthony - Marc Anthony (1999) [FLAC]\07 - How Could I.wav
  128.  
  129.      Peak level 99.9 %
  130.      Extraction speed 6.0 X
  131.      Track quality 100.0 %
  132.      Test CRC 68365C3C
  133.      Copy CRC 68365C3C
  134.      Accurately ripped (confidence 1)  [746CBE1F]  (AR v1)
  135.      Copy OK
  136.  
  137. Track  8
  138.  
  139.      Filename H:\Lossless Music\EAC\Marc Anthony - Marc Anthony (1999) [FLAC]\08 - That's Okay.wav
  140.  
  141.      Peak level 99.8 %
  142.      Extraction speed 6.3 X
  143.      Track quality 100.0 %
  144.      Test CRC 81B794EE
  145.      Copy CRC 81B794EE
  146.      Accurately ripped (confidence 1)  [2448218C]  (AR v1)
  147.      Copy OK
  148.  
  149. Track  9
  150.  
  151.      Filename H:\Lossless Music\EAC\Marc Anthony - Marc Anthony (1999) [FLAC]\09 - Don't Let Me Leave.wav

This paste is large and only partially shown.
View full paste

View raw paste Reply