Author: nvtuan86 Language: text
Description: Not specified Timestamp: 2017-12-25 00:09:53 +0000
View raw paste Reply
  1. General
  2. Unique ID                                : 128256775210941752568768942324180220797 (0x607D5B3CB2B6C62FD906F2687E667B7D)
  3. Complete name                            : D:\VietHD\Golmaal Again 720p BluRay DD5.1 x264-VietHD\Golmaal Again 720p BluRay DD5.1 x264-VietHD.mkv
  4. Format                                   : Matroska
  5. Format version                           : Version 4 / Version 2
  6. File size                                : 7.54 GiB
  7. Duration                                 : 2h 31mn
  8. Overall bit rate                         : 7 141 Kbps
  9. Encoded date                             : UTC 2017-12-24 23:30:59
  10. Writing application                      : mkvmerge v19.0.0 ('Brave Captain') 64-bit
  11. Writing library                          : libebml v1.3.5 + libmatroska v1.4.8
  12.  
  13. Video
  14. ID                                       : 3
  15. Format                                   : AVC
  16. Format/Info                              : Advanced Video Codec
  17. Format profile                           : High@L4.1
  18. Format settings, CABAC                   : Yes
  19. Format settings, ReFrames                : 12 frames
  20. Codec ID                                 : V_MPEG4/ISO/AVC
  21. Duration                                 : 2h 31mn
  22. Bit rate                                 : 6 500 Kbps
  23. Width                                    : 1 280 pixels
  24. Height                                   : 536 pixels
  25. Display aspect ratio                     : 2.40:1
  26. Frame rate mode                          : Constant
  27. Frame rate                               : 24.000 fps
  28. Color space                              : YUV
  29. Chroma subsampling                       : 4:2:0
  30. Bit depth                                : 8 bits
  31. Scan type                                : Progressive
  32. Bits/(Pixel*Frame)                       : 0.395
  33. Stream size                              : 6.86 GiB (91%)
  34. Writing library                          : x264 core 150 r2833+21 82447f2 VietHD_Custom
  35. Encoding settings                        : cabac=1 / ref=12 / deblock=1:-3:-3 / analyse=0x3:0x133 / me=umh / subme=10 / psy=1 / fade_compensate=0.00 / psy_rd=1.09:0.00 / mixed_ref=1 / me_range=24 / chroma_me=1 / trellis=2 / 8x8dct=1 / cqm=0 / deadzone=21,11 / fast_pskip=0 / chroma_qp_offset=-2 / threads=12 / lookahead_threads=2 / sliced_threads=0 / nr=0 / decimate=0 / interlaced=0 / bluray_compat=0 / constrained_intra=0 / fgo=0 / bframes=9 / b_pyramid=2 / b_adapt=2 / b_bias=0 / direct=3 / weightb=1 / open_gop=0 / weightp=2 / keyint=250 / keyint_min=24 / scenecut=40 / intra_refresh=0 / rc_lookahead=60 / rc=2pass / mbtree=0 / bitrate=6500 / ratetol=1.0 / qcomp=0.60 / qpmin=0:0:0 / qpmax=69:69:69 / qpstep=4 / cplxblur=20.0 / qblur=0.5 / vbv_maxrate=62500 / vbv_bufsize=78125 / nal_hrd=none / filler=0 / ip_ratio=1.30 / pb_ratio=1.20 / aq=3:0.75 / aq-sensitivity=10.00 / aq-factor=1.00:1.00:1.00 / aq2=0 / aq3=0 / zones=1219,2484,b=2/6520,10816,b=2/25141,27581,b=2/29809,35605,b=2/39704,45317,b=2/53282,60217,b=2/95752,101926,b=2/102996,111507,b=2/151461,151986,b=2/153218,155580,b=2/183298,188006,b=2/189616,190248,b=2/194373,213101,b=2
  36. Language                                 : English
  37. Default                                  : Yes
  38. Forced                                   : No
  39. Color range                              : Limited
  40. Matrix coefficients                      : BT.709
  41.  
  42. Audio
  43. ID                                       : 1
  44. Format                                   : AC-3
  45. Format/Info                              : Audio Coding 3
  46. Mode extension                           : CM (complete main)
  47. Format settings, Endianness              : Big
  48. Codec ID                                 : A_AC3
  49. Duration                                 : 2h 31mn
  50. Bit rate mode                            : Constant
  51. Bit rate                                 : 640 Kbps
  52. Channel(s)                               : 6 channels
  53. Channel positions                        : Front: L C R, Side: L R, LFE
  54. Sampling rate                            : 48.0 KHz
  55. Frame rate                               : 31.250 fps (1536 spf)
  56. Compression mode                         : Lossy
  57. Stream size                              : 692 MiB (9%)
  58. Language                                 : English
  59. Default                                  : Yes
  60. Forced                                   : No
  61.  
  62. Text
  63. ID                                       : 2
  64. Format                                   : UTF-8
  65. Codec ID                                 : S_TEXT/UTF8
  66. Codec ID/Info                            : UTF-8 Plain Text
  67. Duration                                 : 2h 25mn
  68. Bit rate                                 : 64 bps
  69. Count of elements                        : 2078
  70. Stream size                              : 69.4 KiB (0%)
  71. Language                                 : English
  72. Default                                  : No
  73. Forced                                   : No
  74.  
  75. Menu
  76. 00:00:00.000                             : en:00:00:00.000
  77. 00:01:43.625                             : en:00:01:43.625
  78. 00:04:31.833                             : en:00:04:31.833

This paste is large and only partially shown.
View full paste

View raw paste Reply