Slexy.org is shutting down and stopped accepting new Pastes on May 4th, 2021.
Existing Pastes will stop being available on or after May 10th, 2021.
Author: Not specified Language: text
Description: Not specified Timestamp: 2013-06-18 01:41:47 +0000
View raw paste Reply
  1. General
  2. Unique ID :         220554462685546935706133890242396666155 (0xA5ED3E915ABE9979B9967D88B719B92B)
  3. Complete name :         Romantic City Carnival in Venice 2010 720p BluRay AC3 5.1 x264-DON.mkv
  4. Format :         Matroska
  5. Format version :         Version 4 / Version 2
  6. File size :         3.69 GiB
  7. Duration :         54mn 16s
  8. Overall bit rate :         9 745 Kbps
  9. Movie name :         ENCODED BY DON 2013
  10. Encoded date :         UTC 2013-03-26 02:22:04
  11. Writing application :         mkvmerge v6.1.0 ('Old Devil') built on Mar 2 2013 14:32:37
  12. Writing library :         libebml v1.3.0 + libmatroska v1.4.0
  13.  
  14.  
  15. Video
  16. ID :         1
  17. Format :         AVC
  18. Format/Info :         Advanced Video Codec
  19. Format profile :         High@L4.1
  20. Format settings, CABAC :         Yes
  21. Format settings, ReFrames :         7 frames
  22. Codec ID :         V_MPEG4/ISO/AVC
  23. Duration :         54mn 16s
  24. Bit rate :         8 207 Kbps
  25. Width :         1 280 pixels
  26. Height :         720 pixels
  27. Display aspect ratio :         16:9
  28. Frame rate :         25.000 fps
  29. Color space :         YUV
  30. Chroma subsampling :         4:2:0
  31. Bit depth :         8 bits
  32. Scan type :         Progressive
  33. Bits/(Pixel*Frame) :         0.356
  34. Stream size :         3.11 GiB (84%)
  35. Title :         DON 2013
  36. Writing library :         x264 core 129 r2245 bc13772
  37. Encoding settings :         cabac=1 / ref=7 / deblock=1:-3:-3 / analyse=0x3:0x113 / me=umh / subme=10 / psy=1 / psy_rd=1.10:0.08 / mixed_ref=1 / me_range=24 / chroma_me=1 / trellis=2 / 8x8dct=1 / cqm=0 / deadzone=21,11 / fast_pskip=0 / chroma_qp_offset=-3 / threads=6 / lookahead_threads=1 / sliced_threads=0 / nr=0 / decimate=0 / interlaced=0 / bluray_compat=0 / constrained_intra=0 / bframes=8 / b_pyramid=2 / b_adapt=2 / b_bias=0 / direct=3 / weightb=1 / open_gop=0 / weightp=2 / keyint=250 / keyint_min=25 / scenecut=40 / intra_refresh=0 / rc_lookahead=50 / rc=crf / mbtree=1 / crf=18.0 / qcomp=0.65 / qpmin=0 / qpmax=69 / qpstep=4 / vbv_maxrate=50000 / vbv_bufsize=62500 / crf_max=0.0 / nal_hrd=none / ip_ratio=1.40 / aq=1:0.80
  38. Language :         German
  39.  
  40.  
  41. Audio #1
  42. ID :         2
  43. Format :         AC-3
  44. Format/Info :         Audio Coding 3
  45. Mode extension :         CM (complete main)
  46. Codec ID :         A_AC3
  47. Duration :         54mn 16s
  48. Bit rate mode :         Constant
  49. Bit rate :         448 Kbps
  50. Channel(s) :         6 channels
  51. Channel positions :         Front: L C R, Side: L R, LFE
  52. Sampling rate :         48.0 KHz
  53. Bit depth :         16 bits
  54. Compression mode :         Lossy
  55. Stream size :         174 MiB (5%)
  56. Title :         Music
  57.  
  58.  
  59.  
  60. Audio #2
  61. ID :         3
  62. Format :         AC-3
  63. Format/Info :         Audio Coding 3
  64. Mode extension :         CM (complete main)
  65. Codec ID :         A_AC3
  66. Duration :         54mn 16s
  67. Bit rate mode :         Constant
  68. Bit rate :         448 Kbps
  69. Channel(s) :         6 channels
  70. Channel positions :         Front: L C R, Side: L R, LFE
  71. Sampling rate :         48.0 KHz
  72. Bit depth :         16 bits
  73. Compression mode :         Lossy
  74. Stream size :         174 MiB (5%)
  75. Title :         Instrumental
  76.  
  77.  
  78. Audio #3
  79. ID :         4
  80. Format :         AC-3
  81. Format/Info :         Audio Coding 3
  82. Mode extension :         CM (complete main)
  83. Codec ID :         A_AC3
  84. Duration :         54mn 16s
  85. Bit rate mode :         Constant
  86. Bit rate :         448 Kbps
  87. Channel(s) :         6 channels
  88. Channel positions :         Front: L C R, Side: L R, LFE
  89. Sampling rate :         48.0 KHz
  90. Bit depth :         16 bits
  91. Compression mode :         Lossy
  92. Stream size :         174 MiB (5%)
  93. Title :         Classical
View raw paste Reply