Author: Not specified Language: text
Description: Not specified Timestamp: 2018-12-11 13:09:40 +0000
View raw paste Reply
  1. General
  2. Unique ID                   : 211681364614182528223531854423452716951 (0x9F40590E87044CEB1121E9439E3A8F97)
  3. Complete name               : E:\Forgotten.2017.1080p.BluRay.x264.DD5.1-Pahe.in.mkv
  4. Format                      : Matroska
  5. Format version              : Version 4 / Version 2
  6. File size                   : 2.57 GiB
  7. Duration                    : 1 h 48 min
  8. Overall bit rate            : 3 386 kb/s
  9. Movie name                  : Gi-eok-ui bam (2017) - Pahe.in
  10. Encoded date                : UTC 2018-12-11 10:33:10
  11. Writing application         : mkvmerge v24.0.0 ('Beyond The Pale') 64-bit
  12. Writing library             : libebml v1.3.6 + libmatroska v1.4.9
  13. Cover                       : Yes
  14. Attachments                 : cover.jpg
  15. Encoded by                  : ≧Pahe.in Team≦
  16.  
  17. Video
  18. ID                          : 1
  19. Format                      : AVC
  20. Format/Info                 : Advanced Video Codec
  21. Format profile              : High@L4.1
  22. Format settings             : CABAC / 4 Ref Frames
  23. Format settings, CABAC      : Yes
  24. Format settings, ReFrames   : 4 frames
  25. Codec ID                    : V_MPEG4/ISO/AVC
  26. Duration                    : 1 h 48 min
  27. Bit rate                    : 2 994 kb/s
  28. Width                       : 1 920 pixels
  29. Height                      : 1 036 pixels
  30. Display aspect ratio        : 1.85:1
  31. Frame rate mode             : Constant
  32. Frame rate                  : 23.976 (24000/1001) FPS
  33. Color space                 : YUV
  34. Chroma subsampling          : 4:2:0
  35. Bit depth                   : 8 bits
  36. Scan type                   : Progressive
  37. Bits/(Pixel*Frame)          : 0.063
  38. Stream size                 : 2.27 GiB (88%)
  39. Writing library             : x264 core 155 r2901 7d0ff22
  40. Encoding settings           : cabac=1 / ref=4 / deblock=1:-3:-3 / analyse=0x3:0x133 / me=umh / subme=10 / psy=1 / psy_rd=1.00:0.15 / mixed_ref=1 / me_range=48 / chroma_me=1 / trellis=2 / 8x8dct=1 / cqm=0 / deadzone=21,11 / fast_pskip=0 / chroma_qp_offset=-3 / threads=24 / lookahead_threads=4 / sliced_threads=0 / nr=0 / decimate=0 / interlaced=0 / bluray_compat=0 / constrained_intra=0 / bframes=8 / b_pyramid=2 / b_adapt=2 / b_bias=0 / direct=3 / weightb=1 / open_gop=0 / weightp=2 / keyint=250 / keyint_min=23 / scenecut=40 / intra_refresh=0 / rc_lookahead=60 / rc=crf / mbtree=0 / crf=23.1 / qcomp=0.60 / qpmin=0 / qpmax=69 / qpstep=4 / vbv_maxrate=33500 / vbv_bufsize=30000 / crf_max=0.0 / nal_hrd=none / filler=0 / ip_ratio=1.30 / pb_ratio=1.20 / aq=3:0.80
  41. Default                     : Yes
  42. Forced                      : No
  43.  
  44. Audio
  45. ID                          : 2
  46. Format                      : AC-3
  47. Format/Info                 : Audio Coding 3
  48. Commercial name             : Dolby Digital
  49. Codec ID                    : A_AC3
  50. Duration                    : 1 h 48 min
  51. Bit rate mode               : Constant
  52. Bit rate                    : 384 kb/s
  53. Channel(s)                  : 6 channels
  54. Channel layout              : L R C LFE Ls Rs
  55. Sampling rate               : 48.0 kHz
  56. Frame rate                  : 31.250 FPS (1536 SPF)
  57. Bit depth                   : 16 bits
  58. Compression mode            : Lossy
  59. Stream size                 : 298 MiB (11%)
  60. Title                       : Pahe.in
  61. Language                    : Korean
  62. Service kind                : Complete Main
  63. Default                     : No
  64. Forced                      : No
  65.  
  66. Text
  67. ID                          : 3
  68. Format                      : PGS
  69. Muxing mode                 : zlib
  70. Codec ID                    : S_HDMV/PGS
  71. Codec ID/Info               : Picture based subtitle format used on BDs/HD-DVDs
  72. Duration                    : 1 h 43 min
  73. Bit rate                    : 16.9 kb/s
  74. Count of elements           : 1763
  75. Stream size                 : 12.5 MiB (0%)
  76. Language                    : English
  77. Default                     : No
  78. Forced                      : Yes
  79.  
  80. Menu
  81. 00:00:00.000                : en:Chapter 01
  82. 00:06:34.060                : en:Chapter 02
  83. 00:15:24.173                : en:Chapter 03
  84. 00:23:50.762                : en:Chapter 04
  85. 00:28:02.013                : en:Chapter 05
  86. 00:36:25.892                : en:Chapter 06
  87. 00:44:12.733                : en:Chapter 07
  88. 00:54:50.203                : en:Chapter 08
  89. 00:58:42.227                : en:Chapter 09
  90. 01:12:13.746                : en:Chapter 10
  91. 01:17:20.135                : en:Chapter 11
  92. 01:23:56.197                : en:Chapter 12
  93. 01:34:01.969                : en:Chapter 13
  94. 01:42:38.152                : en:Chapter 14
  95.  
  96.  
View raw paste Reply