Author: Not specified Language: text
Description: Not specified Timestamp: 2019-08-30 03:09:38 +0000
View raw paste Child paste by: Not specified Reply
  1. General
  2. Unique ID                   : 279631552291235249780894008739796498676 (0xD25F13F78049F69D0F397D9C62FA38F4)
  3. Complete name               : E:\Dark.Phoenix.2019.1080p.BluRay.x264.6CH-Pahe.in.mkv
  4. Format                      : Matroska
  5. Format version              : Version 4 / Version 2
  6. File size                   : 2.08 GiB
  7. Duration                    : 1 h 53 min
  8. Overall bit rate            : 2 619 kb/s
  9. Encoded date                : UTC 2019-08-30 03:03:20
  10. Writing application         : mkvmerge v24.0.0 ('Beyond The Pale') 64-bit
  11. Writing library             : libebml v1.3.6 + libmatroska v1.4.9
  12. Cover                       : Yes
  13. Attachments                 : cover.jpg
  14. Encoded by                  : Pahe.in™ Team
  15.  
  16. Video
  17. ID                          : 1
  18. Format                      : AVC
  19. Format/Info                 : Advanced Video Codec
  20. Format profile              : High@L4.1
  21. Format settings             : CABAC / 5 Ref Frames
  22. Format settings, CABAC      : Yes
  23. Format settings, ReFrames   : 5 frames
  24. Codec ID                    : V_MPEG4/ISO/AVC
  25. Duration                    : 1 h 53 min
  26. Bit rate                    : 2 422 kb/s
  27. Width                       : 1 920 pixels
  28. Height                      : 804 pixels
  29. Display aspect ratio        : 2.40:1
  30. Frame rate mode             : Constant
  31. Frame rate                  : 23.976 (24000/1001) FPS
  32. Color space                 : YUV
  33. Chroma subsampling          : 4:2:0
  34. Bit depth                   : 8 bits
  35. Scan type                   : Progressive
  36. Bits/(Pixel*Frame)          : 0.065
  37. Stream size                 : 1.93 GiB (92%)
  38. Writing library             : x264 core 155 r2901 7d0ff22
  39. Encoding settings           : cabac=1 / ref=5 / deblock=1:-3:-3 / analyse=0x3:0x133 / me=umh / subme=10 / psy=1 / psy_rd=1.00:0.15 / mixed_ref=1 / me_range=32 / chroma_me=1 / trellis=2 / 8x8dct=1 / cqm=0 / deadzone=21,11 / fast_pskip=0 / chroma_qp_offset=-3 / threads=18 / lookahead_threads=3 / sliced_threads=0 / nr=0 / decimate=0 / interlaced=0 / bluray_compat=0 / constrained_intra=0 / bframes=8 / b_pyramid=2 / b_adapt=2 / b_bias=0 / direct=3 / weightb=1 / open_gop=0 / weightp=2 / keyint=250 / keyint_min=23 / scenecut=40 / intra_refresh=0 / rc_lookahead=60 / rc=crf / mbtree=0 / crf=24.1 / qcomp=0.60 / qpmin=0 / qpmax=69 / qpstep=4 / vbv_maxrate=33500 / vbv_bufsize=30000 / crf_max=0.0 / nal_hrd=none / filler=0 / ip_ratio=1.30 / pb_ratio=1.20 / aq=3:0.80
  40. Default                     : Yes
  41. Forced                      : No
  42.  
  43. Audio
  44. ID                          : 2
  45. Format                      : AAC LC SBR
  46. Format/Info                 : Advanced Audio Codec Low Complexity with Spectral Band Replication
  47. Commercial name             : HE-AAC
  48. Format settings             : Explicit
  49. Codec ID                    : A_AAC-2
  50. Duration                    : 1 h 53 min
  51. Bit rate                    : 192 kb/s
  52. Channel(s)                  : 6 channels
  53. Channel layout              : C L R Ls Rs LFE
  54. Sampling rate               : 48.0 kHz
  55. Frame rate                  : 23.438 FPS (2048 SPF)
  56. Compression mode            : Lossy
  57. Delay relative to video     : 31 ms
  58. Stream size                 : 159 MiB (7%)
  59. Title                       : Pahe.in Encodes
  60. Language                    : English
  61. Default                     : No
  62. Forced                      : No
  63.  
  64. Text #1
  65. ID                          : 3
  66. Format                      : UTF-8
  67. Codec ID                    : S_TEXT/UTF8
  68. Codec ID/Info               : UTF-8 Plain Text
  69. Duration                    : 31 min 20 s
  70. Bit rate                    : 0 b/s
  71. Count of elements           : 4
  72. Stream size                 : 168 Bytes (0%)
  73. Title                       : non-English parts
  74. Language                    : English
  75. Default                     : No
  76. Forced                      : No
  77.  
  78. Text #2
  79. ID                          : 4
  80. Format                      : UTF-8
  81. Codec ID                    : S_TEXT/UTF8
  82. Codec ID/Info               : UTF-8 Plain Text
  83. Duration                    : 1 h 44 min
  84. Bit rate                    : 81 b/s
  85. Count of elements           : 1187
  86. Stream size                 : 63.0 KiB (0%)
  87. Title                       : Yellow
  88. Language                    : Indonesian
  89. Default                     : No
  90. Forced                      : No
  91.  
  92. Text #3
  93. ID                          : 5
  94. Format                      : UTF-8
  95. Codec ID                    : S_TEXT/UTF8
  96. Codec ID/Info               : UTF-8 Plain Text
  97. Duration                    : 1 h 44 min
  98. Bit rate                    : 38 b/s
  99. Count of elements           : 1187
  100. Stream size                 : 29.5 KiB (0%)
  101. Language                    : Indonesian
  102. Default                     : No
  103. Forced                      : No
  104.  
  105. Text #4
  106. ID                          : 6
  107. Format                      : UTF-8
  108. Codec ID                    : S_TEXT/UTF8
  109. Codec ID/Info               : UTF-8 Plain Text
  110. Duration                    : 1 h 52 min
  111. Bit rate                    : 38 b/s
  112. Count of elements           : 1135
  113. Stream size                 : 31.5 KiB (0%)
  114. Title                       : egular

This paste is large and only partially shown.
View full paste

View raw paste Child paste by: Not specified Reply