Author: nvtuan86 Language: text
Description: Not specified Timestamp: 2017-09-28 15:01:19 +0000
View raw paste Reply
  1. General
  2. Unique ID                                : 204067902617555734407296395962736824206 (0x99860C662AC15A1EBE56ED34E985CF8E)
  3. Complete name                            : D:\VietHD\House of Cards US S05 1080p BluRay DD5.1 x264-VietHD\House of Cards US S05 E01 1080p BluRay DD5.1 x264-VietHD.mkv
  4. Format                                   : Matroska
  5. Format version                           : Version 4 / Version 2
  6. File size                                : 5.29 GiB
  7. Duration                                 : 55mn 31s
  8. Overall bit rate                         : 13.6 Mbps
  9. Encoded date                             : UTC 2017-09-26 16:11:52
  10. Writing application                      : mkvmerge v14.0.0 ('Flow') 64bit
  11. Writing library                          : libebml v1.3.4 + libmatroska v1.4.5
  12.  
  13. Video
  14. ID                                       : 2
  15. Format                                   : AVC
  16. Format/Info                              : Advanced Video Codec
  17. Format profile                           : High@L4.1
  18. Format settings, CABAC                   : Yes
  19. Format settings, ReFrames                : 4 frames
  20. Codec ID                                 : V_MPEG4/ISO/AVC
  21. Duration                                 : 55mn 31s
  22. Bit rate                                 : 13.0 Mbps
  23. Width                                    : 1 920 pixels
  24. Height                                   : 960 pixels
  25. Display aspect ratio                     : 2.000
  26. Frame rate mode                          : Constant
  27. Frame rate                               : 23.976 (24000/1001) fps
  28. Color space                              : YUV
  29. Chroma subsampling                       : 4:2:0
  30. Bit depth                                : 8 bits
  31. Scan type                                : Progressive
  32. Bits/(Pixel*Frame)                       : 0.294
  33. Stream size                              : 5.04 GiB (95%)
  34. Writing library                          : x264 core 150 r2833+21 82447f2 VietHD_Custom
  35. Encoding settings                        : cabac=1 / ref=4 / deblock=1:-3:-3 / analyse=0x3:0x133 / me=umh / subme=10 / psy=1 / fade_compensate=0.00 / psy_rd=1.06:0.00 / mixed_ref=1 / me_range=24 / chroma_me=1 / trellis=2 / 8x8dct=1 / cqm=0 / deadzone=21,11 / fast_pskip=0 / chroma_qp_offset=-2 / threads=12 / lookahead_threads=2 / sliced_threads=0 / nr=0 / decimate=0 / interlaced=0 / bluray_compat=0 / constrained_intra=0 / fgo=0 / bframes=8 / b_pyramid=2 / b_adapt=2 / b_bias=0 / direct=3 / weightb=1 / open_gop=0 / weightp=2 / keyint=250 / keyint_min=23 / scenecut=40 / intra_refresh=0 / rc_lookahead=60 / rc=2pass / mbtree=0 / bitrate=13000 / ratetol=1.0 / qcomp=0.65 / qpmin=0:0:0 / qpmax=69:69:69 / qpstep=4 / cplxblur=20.0 / qblur=0.5 / vbv_maxrate=62500 / vbv_bufsize=78125 / nal_hrd=none / filler=0 / ip_ratio=1.30 / pb_ratio=1.20 / aq=3:0.75 / aq-sensitivity=10.00 / aq-factor=1.00:1.00:1.00 / aq2=0 / aq3=0
  36. Language                                 : English
  37. Default                                  : Yes
  38. Forced                                   : No
  39. Color range                              : Limited
  40. Matrix coefficients                      : BT.709
  41.  
  42. Audio
  43. ID                                       : 1
  44. Format                                   : AC-3
  45. Format/Info                              : Audio Coding 3
  46. Mode extension                           : CM (complete main)
  47. Format settings, Endianness              : Big
  48. Codec ID                                 : A_AC3
  49. Duration                                 : 55mn 31s
  50. Bit rate mode                            : Constant
  51. Bit rate                                 : 640 Kbps
  52. Channel(s)                               : 6 channels
  53. Channel positions                        : Front: L C R, Side: L R, LFE
  54. Sampling rate                            : 48.0 KHz
  55. Frame rate                               : 31.250 fps (1536 spf)
  56. Compression mode                         : Lossy
  57. Stream size                              : 254 MiB (5%)
  58. Language                                 : English
  59. Default                                  : Yes
  60. Forced                                   : No
  61.  
  62. Text #1
  63. ID                                       : 3
  64. Format                                   : UTF-8
  65. Codec ID                                 : S_TEXT/UTF8
  66. Codec ID/Info                            : UTF-8 Plain Text
  67. Duration                                 : 53mn 10s
  68. Bit rate                                 : 69 bps
  69. Count of elements                        : 796
  70. Stream size                              : 27.2 KiB (0%)
  71. Language                                 : English
  72. Default                                  : No
  73. Forced                                   : No
  74.  
  75. Text #2
  76. ID                                       : 4
  77. Format                                   : UTF-8
  78. Codec ID                                 : S_TEXT/UTF8
  79. Codec ID/Info                            : UTF-8 Plain Text
  80. Duration                                 : 53mn 10s
  81. Bit rate                                 : 75 bps
  82. Count of elements                        : 866

This paste is large and only partially shown.
View full paste

View raw paste Reply