Author: Not specified Language: text
Description: Not specified Timestamp: 2019-10-07 02:24:33 +0000
View raw paste Child paste by: Not specified Reply
  1. General
  2. Unique ID                   : 261668016038247867913387585764181747417 (0xC4DB6D3FFD35575E87407168AC9126D9)
  3. Complete name               : E:\Stuber.2019.1080p.UHD.BluRay.x264.DD5.1-Pahe.in.mkv
  4. Format                      : Matroska
  5. Format version              : Version 4 / Version 2
  6. File size                   : 2.43 GiB
  7. Duration                    : 1 h 33 min
  8. Overall bit rate            : 3 728 kb/s
  9. Movie name                  : Stuber 4K Source - Pahe.in
  10. Encoded date                : UTC 2019-10-06 23:37:23
  11. Writing application         : mkvmerge v35.0.0 ('All The Love In The World') 64-bit
  12. Writing library             : libebml v1.3.9 + libmatroska v1.5.2
  13. Cover                       : Yes
  14. Attachments                 : cover.jpg
  15. Encoded by                  : Pahe.in™ Team
  16.  
  17. Video
  18. ID                          : 1
  19. Format                      : AVC
  20. Format/Info                 : Advanced Video Codec
  21. Format profile              : High@L4.1
  22. Format settings             : CABAC / 5 Ref Frames
  23. Format settings, CABAC      : Yes
  24. Format settings, ReFrames   : 5 frames
  25. Codec ID                    : V_MPEG4/ISO/AVC
  26. Duration                    : 1 h 33 min
  27. Bit rate                    : 3 323 kb/s
  28. Width                       : 1 920 pixels
  29. Height                      : 804 pixels
  30. Display aspect ratio        : 2.40:1
  31. Frame rate mode             : Constant
  32. Frame rate                  : 23.976 (24000/1001) FPS
  33. Color space                 : YUV
  34. Chroma subsampling          : 4:2:0
  35. Bit depth                   : 8 bits
  36. Scan type                   : Progressive
  37. Bits/(Pixel*Frame)          : 0.090
  38. Stream size                 : 2.17 GiB (89%)
  39. Writing library             : x264 core 155 r2901 7d0ff22
  40. Encoding settings           : cabac=1 / ref=5 / deblock=1:-3:-3 / analyse=0x3:0x133 / me=umh / subme=10 / psy=1 / psy_rd=1.00:0.15 / mixed_ref=1 / me_range=48 / chroma_me=1 / trellis=2 / 8x8dct=1 / cqm=0 / deadzone=21,11 / fast_pskip=0 / chroma_qp_offset=-3 / threads=18 / lookahead_threads=3 / sliced_threads=0 / nr=0 / decimate=0 / interlaced=0 / bluray_compat=0 / constrained_intra=0 / bframes=8 / b_pyramid=2 / b_adapt=2 / b_bias=0 / direct=3 / weightb=1 / open_gop=0 / weightp=2 / keyint=250 / keyint_min=23 / scenecut=40 / intra_refresh=0 / rc_lookahead=60 / rc=crf / mbtree=0 / crf=22.9 / qcomp=0.60 / qpmin=0 / qpmax=69 / qpstep=4 / vbv_maxrate=35000 / vbv_bufsize=29500 / crf_max=0.0 / nal_hrd=none / filler=0 / ip_ratio=1.30 / pb_ratio=1.20 / aq=3:0.80
  41. Default                     : Yes
  42. Forced                      : No
  43. Color range                 : Limited
  44. Color primaries             : BT.709
  45. Matrix coefficients         : BT.709
  46.  
  47. Audio
  48. ID                          : 2
  49. Format                      : AC-3
  50. Format/Info                 : Audio Coding 3
  51. Commercial name             : Dolby Digital
  52. Codec ID                    : A_AC3
  53. Duration                    : 1 h 33 min
  54. Bit rate mode               : Constant
  55. Bit rate                    : 384 kb/s
  56. Channel(s)                  : 6 channels
  57. Channel layout              : L R C LFE Ls Rs
  58. Sampling rate               : 48.0 kHz
  59. Frame rate                  : 31.250 FPS (1536 SPF)
  60. Bit depth                   : 16 bits
  61. Compression mode            : Lossy
  62. Stream size                 : 257 MiB (10%)
  63. Title                       : Pahe.in dolby audio
  64. Language                    : English
  65. Service kind                : Complete Main
  66. Default                     : No
  67. Forced                      : No
  68.  
  69. Text #1
  70. ID                          : 3
  71. Format                      : PGS
  72. Muxing mode                 : zlib
  73. Codec ID                    : S_HDMV/PGS
  74. Codec ID/Info               : Picture based subtitle format used on BDs/HD-DVDs
  75. Duration                    : 1 h 27 min
  76. Bit rate                    : 62.4 kb/s
  77. Count of elements           : 4306
  78. Stream size                 : 38.9 MiB (2%)
  79. Language                    : English
  80. Default                     : Yes
  81. Forced                      : No
  82.  
  83. Text #2
  84. ID                          : 4
  85. Format                      : UTF-8
  86. Codec ID                    : S_TEXT/UTF8
  87. Codec ID/Info               : UTF-8 Plain Text
  88. Duration                    : 1 h 26 min
  89. Bit rate                    : 81 b/s
  90. Count of elements           : 1952
  91. Stream size                 : 52.0 KiB (0%)
  92. Language                    : English
  93. Default                     : No
  94. Forced                      : No
  95.  
  96. Menu
  97. 00:00:00.000                : en:Chapter 01
  98. 00:05:52.435                : en:Chapter 02
  99. 00:09:57.222                : en:Chapter 03
  100. 00:14:14.854                : en:Chapter 04
  101. 00:17:30.675                : en:Chapter 05
  102. 00:19:46.310                : en:Chapter 06
  103. 00:22:40.276                : en:Chapter 07
  104. 00:27:33.402                : en:Chapter 08
  105. 00:31:30.889                : en:Chapter 09
  106. 00:33:19.247                : en:Chapter 10
  107. 00:35:39.888                : en:Chapter 11
  108. 00:40:13.036                : en:Chapter 12
  109. 00:45:05.202                : en:Chapter 13
  110. 00:49:10.114                : en:Chapter 14

This paste is large and only partially shown.
View full paste

View raw paste Child paste by: Not specified Reply