Author: Not specified Language: text
Description: (v2) Timestamp: 2018-01-19 09:48:25 +0000
View raw paste Parent paste by: Not specified Reply
  1. General
  2. Format                      : Matroska
  3. Format version              : Version 4 / Version 2
  4. File size                   : 2.89 GiB
  5. Duration                    : 1 h 48 min
  6. Overall bit rate            : 3 822 kb/s
  7. Movie name                  : Deadpool (2016) 4K scan edition [Pahe.in]
  8. Encoded date                : UTC 2017-11-29 07:36:42
  9. Writing application         : mkvmerge v13.0.0 ('The Juggler') 64bit
  10. Writing library             : libebml v1.3.4 + libmatroska v1.4.5
  11. Cover                       : Yes
  12. Attachments                 : cover.jpg
  13. Encoded by                  : Pahe.inā?¢ Team
  14.  
  15. Video
  16. ID                          : 1
  17. Format                      : AVC
  18. Format/Info                 : Advanced Video Codec
  19. Format profile              : High@L4.1
  20. Format settings             : CABAC / 5 Ref Frames
  21. Format settings, CABAC      : Yes
  22. Format settings, RefFrames  : 5 frames
  23. Codec ID                    : V_MPEG4/ISO/AVC
  24. Duration                    : 1 h 48 min
  25. Bit rate                    : 3 422 kb/s
  26. Width                       : 1 920 pixels
  27. Height                      : 804 pixels
  28. Display aspect ratio        : 2.40:1
  29. Frame rate mode             : Constant
  30. Frame rate                  : 23.976 (24000/1001) FPS
  31. Color space                 : YUV
  32. Chroma subsampling          : 4:2:0
  33. Bit depth                   : 8 bits
  34. Scan type                   : Progressive
  35. Bits/(Pixel*Frame)          : 0.092
  36. Stream size                 : 2.58 GiB (90%)
  37. Writing library             : x264 core 152 r2851 ba24899
  38. Encoding settings           : cabac=1 / ref=5 / deblock=1:-3:-3 / analyse=0x3:0x133 / me=umh / subme=11 / psy=1 / psy_rd=1.00:0.15 / mixed_ref=1 / me_range=48 / chroma_me=1 / trellis=2 / 8x8dct=1 / cqm=0 / deadzone=21,11 / fast_pskip=0 / chroma_qp_offset=-3 / threads=25 / lookahead_threads=4 / sliced_threads=0 / nr=0 / decimate=0 / interlaced=0 / bluray_compat=0 / constrained_intra=0 / bframes=8 / b_pyramid=2 / b_adapt=2 / b_bias=0 / direct=3 / weightb=1 / open_gop=0 / weightp=2 / keyint=250 / keyint_min=23 / scenecut=40 / intra_refresh=0 / rc_lookahead=60 / rc=crf / mbtree=0 / crf=23.0 / qcomp=0.70 / qpmin=0 / qpmax=69 / qpstep=4 / vbv_maxrate=45800 / vbv_bufsize=36000 / crf_max=0.0 / nal_hrd=none / filler=0 / ip_ratio=1.30 / pb_ratio=1.20 / aq=1:0.80 / zones=72,576,crf=21/622,906,crf=20.5/11575,11592,crf=21.5/13849,14469,crf=21.5/15337,15390,crf=21.2/21761,22012,crf=21.5/22241,25480,crf=22/25591,25714,crf=21/25925,31801,crf=22.5/31802,32465,crf=22/33874,34381,crf=20.5/34438,34740,crf=21.5/34872,35538,crf=21.2/36385,38811,crf=21.5/58902,59209,crf=21/59700,59917,crf=21.2/62583,62634,crf=21.5/62938,62987,crf=21.5/64493,64605,crf=21.5/66592,67519,crf=21.5/75684,75711,crf=21/76048,76075,crf=21/76313,79857,crf=21/80895,81196,crf=21/83394,86392,crf=22/91819,91976,crf=21.5/100651,100720,crf=21.5/102287,103725,crf=21/103726,107247,crf=21.5/118449,118615,crf=21.5/124367,124443,crf=21.2/129228,130165,crf=21.2/130450,130853,crf=21.5/133390,133519,crf=21.2/136898,137067,crf=21.2/137411,137546,crf=21.2/137597,137670,crf=21.2/145303,145360,crf=20.5/145361,147575,crf=21.5/147576,153886,crf=22/154640,154755,crf=22/155466,155513,crf=22
  39. Default                     : Yes
  40. Forced                      : No
  41.  
  42. Audio
  43. ID                          : 2
  44. Format                      : AC-3
  45. Format/Info                 : Audio Coding 3
  46. Format settings, Endianness : Big
  47. Codec ID                    : A_AC3
  48. Duration                    : 1 h 48 min
  49. Bit rate mode               : Constant
  50. Bit rate                    : 384 kb/s
  51. Channel(s)                  : 6 channels
  52. Channel positions           : Front: L C R, Side: L R, LFE
  53. Sampling rate               : 48.0 kHz
  54. Frame rate                  : 31.250 FPS (1536 SPF)
  55. Bit depth                   : 16 bits
  56. Compression mode            : Lossy
  57. Stream size                 : 297 MiB (10%)
  58. Language                    : English
  59. Service kind                : Complete Main
  60. Default                     : No
  61. Forced                      : No
  62.  
  63. Text #1
  64. ID                          : 3
  65. Format                      : UTF-8
  66. Codec ID                    : S_TEXT/UTF8
  67. Codec ID/Info               : UTF-8 Plain Text
  68. Duration                    : 1 h 44 min
  69. Bit rate                    : 60 b/s
  70. Count of elements           : 1562
  71. Stream size                 : 46.1 KiB (0%)
  72. Language                    : English
  73. Default                     : No
  74. Forced                      : No
  75.  
  76. Text #2
  77. ID                          : 4
  78. Format                      : PGS
  79. Muxing mode                 : zlib
  80. Codec ID                    : S_HDMV/PGS
  81. Codec ID/Info               : Picture based subtitle format used on BDs/HD-DVDs
  82. Duration                    : 1 h 47 min
  83. Bit rate                    : 41.6 kb/s
  84. Count of elements           : 3704
  85. Stream size                 : 32.0 MiB (1%)
  86. Language                    : English
  87. Default                     : Yes
  88. Forced                      : No
  89.  
  90. Text #3
  91. ID                          : 5
  92. Format                      : PGS
  93. Muxing mode                 : zlib

This paste is large and only partially shown.
View full paste

View raw paste Parent paste by: Not specified Reply