Author: Not specified Language: text
Description: Not specified Timestamp: 2019-08-23 07:27:32 +0000
View raw paste Child paste by: Not specified Reply
  1. General
  2. Unique ID                   : 118198518305421214192234784392979843175 (0x58EC34E256D2931A9FE357C2A81E8867)
  3. Complete name               : F:\Men.in.Black.International.2019.1080p.BluRay.x264.6CH-Pahe.in.mkv
  4. Format                      : Matroska
  5. Format version              : Version 4
  6. File size                   : 2.25 GiB
  7. Duration                    : 1 h 54 min
  8. Overall bit rate            : 2 802 kb/s
  9. Encoded date                : UTC 2019-08-23 07:15:01
  10. Writing application         : mkvmerge v24.0.0 ('Beyond The Pale') 64-bit
  11. Writing library             : libebml v1.3.6 + libmatroska v1.4.9
  12. Cover                       : Yes
  13. Attachments                 : cover.jpg
  14. Encoded by                  : Pahe.in™ Team
  15.  
  16. Video
  17. ID                          : 1
  18. Format                      : AVC
  19. Format/Info                 : Advanced Video Codec
  20. Format profile              : High@L4.1
  21. Format settings             : CABAC / 4 Ref Frames
  22. Format settings, CABAC      : Yes
  23. Format settings, ReFrames   : 4 frames
  24. Codec ID                    : V_MPEG4/ISO/AVC
  25. Duration                    : 1 h 54 min
  26. Bit rate                    : 2 596 kb/s
  27. Width                       : 1 920 pixels
  28. Height                      : 960 pixels
  29. Display aspect ratio        : 2.000
  30. Frame rate mode             : Constant
  31. Frame rate                  : 23.976 (24000/1001) FPS
  32. Color space                 : YUV
  33. Chroma subsampling          : 4:2:0
  34. Bit depth                   : 8 bits
  35. Scan type                   : Progressive
  36. Bits/(Pixel*Frame)          : 0.059
  37. Stream size                 : 2.08 GiB (93%)
  38. Writing library             : x264 core 155 r2901 7d0ff22
  39. Encoding settings           : cabac=1 / ref=4 / deblock=1:-3:-3 / analyse=0x3:0x133 / me=umh / subme=10 / psy=1 / psy_rd=1.00:0.15 / mixed_ref=1 / me_range=32 / chroma_me=1 / trellis=2 / 8x8dct=1 / cqm=0 / deadzone=21,11 / fast_pskip=0 / chroma_qp_offset=-3 / threads=24 / lookahead_threads=4 / sliced_threads=0 / nr=0 / decimate=0 / interlaced=0 / bluray_compat=0 / constrained_intra=0 / bframes=8 / b_pyramid=2 / b_adapt=2 / b_bias=0 / direct=3 / weightb=1 / open_gop=0 / weightp=2 / keyint=250 / keyint_min=23 / scenecut=40 / intra_refresh=0 / rc_lookahead=60 / rc=crf / mbtree=0 / crf=25.0 / qcomp=0.60 / qpmin=0 / qpmax=69 / qpstep=4 / vbv_maxrate=33500 / vbv_bufsize=30000 / crf_max=0.0 / nal_hrd=none / filler=0 / ip_ratio=1.30 / pb_ratio=1.20 / aq=3:0.80
  40. Default                     : Yes
  41. Forced                      : No
  42.  
  43. Audio
  44. ID                          : 2
  45. Format                      : AAC LC SBR
  46. Format/Info                 : Advanced Audio Codec Low Complexity with Spectral Band Replication
  47. Commercial name             : HE-AAC
  48. Format settings             : Explicit
  49. Codec ID                    : A_AAC-2
  50. Duration                    : 1 h 54 min
  51. Bit rate                    : 198 kb/s
  52. Channel(s)                  : 6 channels
  53. Channel layout              : C L R Ls Rs LFE
  54. Sampling rate               : 48.0 kHz
  55. Frame rate                  : 23.438 FPS (2048 SPF)
  56. Compression mode            : Lossy
  57. Delay relative to video     : 31 ms
  58. Stream size                 : 163 MiB (7%)
  59. Title                       : Pahe.in Encodes
  60. Language                    : English
  61. Default                     : No
  62. Forced                      : No
  63.  
  64. Text
  65. ID                          : 3
  66. Format                      : VobSub
  67. Muxing mode                 : zlib
  68. Codec ID                    : S_VOBSUB
  69. Codec ID/Info               : Picture based subtitle format used on DVDs
  70. Duration                    : 1 h 43 min
  71. Bit rate                    : 11.1 kb/s
  72. Count of elements           : 1484
  73. Stream size                 : 8.20 MiB (0%)
  74. Language                    : English
  75. Default                     : Yes
  76. Forced                      : No
  77.  
  78. Menu
  79. 00:00:00.000                : en:00:00:00.000
  80. 00:07:58.687                : en:00:07:58.687
  81. 00:15:33.099                : en:00:15:33.099
  82. 00:20:09.583                : en:00:20:09.583
  83. 00:27:17.135                : en:00:27:17.135
  84. 00:34:29.651                : en:00:34:29.651
  85. 00:46:10.267                : en:00:46:10.267
  86. 00:50:32.029                : en:00:50:32.029
  87. 00:59:01.204                : en:00:59:01.204
  88. 01:03:12.914                : en:01:03:12.914
  89. 01:10:51.414                : en:01:10:51.414
  90. 01:14:35.930                : en:01:14:35.930
  91. 01:25:31.209                : en:01:25:31.209
  92. 01:28:49.574                : en:01:28:49.574
  93. 01:34:29.247                : en:01:34:29.247
  94. 01:43:31.831                : en:01:43:31.831
  95.  
  96.  
View raw paste Child paste by: Not specified Reply