Author: Not specified Language: text
Description: Not specified Timestamp: 2019-10-26 23:35:24 +0000
View raw paste Child paste by: Not specified Reply
  1. General
  2. Unique ID                   : 319810457009164989301457964669142290115 (0xF09940E9D8A8D1A35847EF391C9BCEC3)
  3. Complete name               : E:\Adit\Quantum.of.Solace.2008.1080p.UHD.BluRay.x264.DD5.1-Pahe.in.mkv
  4. Format                      : Matroska
  5. Format version              : Version 4
  6. File size                   : 2.50 GiB
  7. Duration                    : 1 h 46 min
  8. Overall bit rate            : 3 366 kb/s
  9. Encoded date                : UTC 2019-10-22 23:31:36
  10. Writing application         : mkvmerge v24.0.0 ('Beyond The Pale') 64-bit
  11. Writing library             : libebml v1.3.6 + libmatroska v1.4.9
  12. Cover                       : Yes
  13. Attachments                 : cover.jpg
  14. Encoded by                  : Pahe.in™ Team
  15.  
  16. Video
  17. ID                          : 1
  18. Format                      : AVC
  19. Format/Info                 : Advanced Video Codec
  20. Format profile              : High@L4.1
  21. Format settings             : CABAC / 5 Ref Frames
  22. Format settings, CABAC      : Yes
  23. Format settings, Reference  : 5 frames
  24. Codec ID                    : V_MPEG4/ISO/AVC
  25. Duration                    : 1 h 46 min
  26. Bit rate                    : 2 970 kb/s
  27. Width                       : 1 920 pixels
  28. Height                      : 800 pixels
  29. Display aspect ratio        : 2.40:1
  30. Frame rate mode             : Constant
  31. Frame rate                  : 23.976 (24000/1001) FPS
  32. Color space                 : YUV
  33. Chroma subsampling          : 4:2:0
  34. Bit depth                   : 8 bits
  35. Scan type                   : Progressive
  36. Bits/(Pixel*Frame)          : 0.081
  37. Stream size                 : 2.20 GiB (88%)
  38. Writing library             : x264 core 155 r2901 7d0ff22
  39. Encoding settings           : cabac=1 / ref=5 / deblock=1:-3:-3 / analyse=0x3:0x133 / me=umh / subme=10 / psy=1 / psy_rd=1.00:0.15 / mixed_ref=1 / me_range=48 / chroma_me=1 / trellis=2 / 8x8dct=1 / cqm=0 / deadzone=21,11 / fast_pskip=0 / chroma_qp_offset=-3 / threads=18 / lookahead_threads=3 / sliced_threads=0 / nr=0 / decimate=0 / interlaced=0 / bluray_compat=0 / constrained_intra=0 / bframes=8 / b_pyramid=2 / b_adapt=2 / b_bias=0 / direct=3 / weightb=1 / open_gop=0 / weightp=2 / keyint=250 / keyint_min=23 / scenecut=40 / intra_refresh=0 / rc_lookahead=60 / rc=crf / mbtree=0 / crf=24.0 / qcomp=0.60 / qpmin=0 / qpmax=69 / qpstep=4 / vbv_maxrate=33500 / vbv_bufsize=30000 / crf_max=0.0 / nal_hrd=none / filler=0 / ip_ratio=1.30 / pb_ratio=1.20 / aq=3:0.80
  40. Default                     : Yes
  41. Forced                      : No
  42.  
  43. Audio
  44. ID                          : 2
  45. Format                      : AC-3
  46. Format/Info                 : Audio Coding 3
  47. Commercial name             : Dolby Digital
  48. Codec ID                    : A_AC3
  49. Duration                    : 1 h 46 min
  50. Bit rate mode               : Constant
  51. Bit rate                    : 384 kb/s
  52. Channel(s)                  : 6 channels
  53. Channel layout              : L R C LFE Ls Rs
  54. Sampling rate               : 48.0 kHz
  55. Frame rate                  : 31.250 FPS (1536 SPF)
  56. Bit depth                   : 16 bits
  57. Compression mode            : Lossy
  58. Stream size                 : 292 MiB (11%)
  59. Language                    : English
  60. Service kind                : Complete Main
  61. Default                     : No
  62. Forced                      : No
  63.  
  64. Text #1
  65. ID                          : 3
  66. Format                      : UTF-8
  67. Codec ID                    : S_TEXT/UTF8
  68. Codec ID/Info               : UTF-8 Plain Text
  69. Duration                    : 1 h 37 min
  70. Bit rate                    : 46 b/s
  71. Count of elements           : 1017
  72. Stream size                 : 33.2 KiB (0%)
  73. Language                    : English
  74. Default                     : No
  75. Forced                      : No
  76.  
  77. Text #2
  78. ID                          : 4
  79. Format                      : UTF-8
  80. Codec ID                    : S_TEXT/UTF8
  81. Codec ID/Info               : UTF-8 Plain Text
  82. Duration                    : 1 h 40 min
  83. Bit rate                    : 49 b/s
  84. Count of elements           : 1189
  85. Stream size                 : 36.7 KiB (0%)
  86. Language                    : English
  87. Default                     : No
  88. Forced                      : No
  89.  
  90. Text #3
  91. ID                          : 5
  92. Format                      : PGS
  93. Muxing mode                 : zlib
  94. Codec ID                    : S_HDMV/PGS
  95. Codec ID/Info               : Picture based subtitle format used on BDs/HD-DVDs
  96. Duration                    : 1 h 40 min
  97. Bit rate                    : 33.1 kb/s
  98. Count of elements           : 2378
  99. Stream size                 : 23.8 MiB (1%)
  100. Language                    : English
  101. Default                     : Yes
  102. Forced                      : No
  103.  
  104. Menu
  105. 00:00:00.000                : en:Chapter 01
  106. 00:04:09.624                : en:Chapter 02
  107. 00:07:27.196                : en:Chapter 03
  108. 00:10:19.994                : en:Chapter 04
  109. 00:15:16.498                : en:Chapter 05
  110. 00:17:47.066                : en:Chapter 06
  111. 00:20:23.972                : en:Chapter 07
  112. 00:22:51.036                : en:Chapter 08
  113. 00:26:27.877                : en:Chapter 09
  114. 00:29:06.035                : en:Chapter 10

This paste is large and only partially shown.
View full paste

View raw paste Child paste by: Not specified Reply