Author: Not specified Language: text
Description: Not specified Timestamp: 2018-05-13 14:00:31 +0000
View raw paste Reply
  1. General
  2. Unique ID                   : 234501502101549350135764709759123447383 (0xB06B58B39384B2B3B469E2EA5E4FDE57)
  3. Complete name               : E:\Black.Panther.2018.REMASTERED.1080p.BluRay.x264.DD5.1-Pahe.in.mkv
  4. Format                      : Matroska
  5. Format version              : Version 4 / Version 2
  6. File size                   : 2.84 GiB
  7. Duration                    : 2 h 14 min
  8. Overall bit rate            : 3 020 kb/s
  9. Movie name                  : Black Panther (2018) ~ Pahe.in
  10. Encoded date                : UTC 2018-05-13 11:45:03
  11. Writing application         : mkvmerge v13.0.0 ('The Juggler') 64bit
  12. Writing library             : libebml v1.3.4 + libmatroska v1.4.5
  13. Cover                       : Yes
  14. Attachments                 : cover.jpg
  15. Encoded by                  : Pahe.in™ Team
  16.  
  17. Video
  18. ID                          : 1
  19. Format                      : AVC
  20. Format/Info                 : Advanced Video Codec
  21. Format profile              : High@L4.1
  22. Format settings             : CABAC / 5 Ref Frames
  23. Format settings, CABAC      : Yes
  24. Format settings, ReFrames   : 5 frames
  25. Codec ID                    : V_MPEG4/ISO/AVC
  26. Duration                    : 2 h 14 min
  27. Bit rate                    : 2 623 kb/s
  28. Width                       : 1 920 pixels
  29. Height                      : 804 pixels
  30. Display aspect ratio        : 2.40:1
  31. Frame rate mode             : Constant
  32. Frame rate                  : 23.976 (24000/1001) FPS
  33. Color space                 : YUV
  34. Chroma subsampling          : 4:2:0
  35. Bit depth                   : 8 bits
  36. Scan type                   : Progressive
  37. Bits/(Pixel*Frame)          : 0.071
  38. Stream size                 : 2.47 GiB (87%)
  39. Writing library             : x264 core 152 r2851 ba24899
  40. Encoding settings           : cabac=1 / ref=5 / deblock=1:-3:-3 / analyse=0x3:0x133 / me=umh / subme=10 / psy=1 / psy_rd=1.00:0.15 / mixed_ref=1 / me_range=48 / chroma_me=1 / trellis=2 / 8x8dct=1 / cqm=0 / deadzone=21,11 / fast_pskip=0 / chroma_qp_offset=-3 / threads=18 / lookahead_threads=3 / sliced_threads=0 / nr=0 / decimate=0 / interlaced=0 / bluray_compat=0 / constrained_intra=0 / bframes=8 / b_pyramid=2 / b_adapt=2 / b_bias=0 / direct=3 / weightb=1 / open_gop=0 / weightp=2 / keyint=250 / keyint_min=23 / scenecut=40 / intra_refresh=0 / rc_lookahead=60 / rc=crf / mbtree=0 / crf=23.8 / qcomp=0.60 / qpmin=0 / qpmax=69 / qpstep=4 / vbv_maxrate=45800 / vbv_bufsize=36000 / crf_max=0.0 / nal_hrd=none / filler=0 / ip_ratio=1.30 / pb_ratio=1.20 / aq=3:0.80 / zones=9710,9980,crf=19.7/12055,17329,crf=22.7/17953,28212,crf=23.9/29554,33175,crf=23.9/33453,36213,crf=23.9/36226,40042,crf=23.2/40186,41069,crf=23.9/42797,43301,crf=23.2/43502,47313,crf=22.7/48177,53363,crf=23.9/55211,58691,crf=23.9/58921,61932,crf=23.2/65121,74498,crf=22.7/74499,74550,crf=20.6/74551,77348,crf=22.7/77349,77687,crf=23.9/82864,83176,crf=23.9/84367,86463,crf=22.7/90371,91797,crf=23.9/91798,97519,crf=23.2/97520,100928,crf=23.9/101072,101515,crf=23.2/103045,104647,crf=23.9/117558,117702,crf=22.7/127110,127431,crf=22.7/131432,133095,crf=23.9/138712,141007,crf=23.9/141389,145652,crf=23.9/145748,146091,crf=23.2/157260,159595,crf=22.7/161929,162599,crf=22.7/165751,168371,crf=23.2/182303,191795,crf=26.7
  41. Default                     : Yes
  42. Forced                      : No
  43.  
  44. Audio
  45. ID                          : 2
  46. Format                      : AC-3
  47. Format/Info                 : Audio Coding 3
  48. Codec ID                    : A_AC3
  49. Duration                    : 2 h 14 min
  50. Bit rate mode               : Constant
  51. Bit rate                    : 384 kb/s
  52. Channel(s)                  : 6 channels
  53. Channel positions           : Front: L C R, Side: L R, LFE
  54. Sampling rate               : 48.0 kHz
  55. Frame rate                  : 31.250 FPS (1536 SPF)
  56. Bit depth                   : 16 bits
  57. Compression mode            : Lossy
  58. Delay relative to video     : 32 ms
  59. Stream size                 : 370 MiB (13%)
  60. Language                    : English
  61. Service kind                : Complete Main
  62. Default                     : No
  63. Forced                      : No
  64.  
  65. Text #1
  66. ID                          : 3
  67. Format                      : UTF-8
  68. Codec ID                    : S_TEXT/UTF8
  69. Codec ID/Info               : UTF-8 Plain Text
  70. Duration                    : 2 h 14 min
  71. Bit rate                    : 42 b/s
  72. Count of elements           : 1585
  73. Stream size                 : 41.7 KiB (0%)
  74. Language                    : English
  75. Default                     : No
  76. Forced                      : No
  77.  
  78. Text #2
  79. ID                          : 4
  80. Format                      : PGS
  81. Muxing mode                 : zlib
  82. Codec ID                    : S_HDMV/PGS
  83. Codec ID/Info               : Picture based subtitle format used on BDs/HD-DVDs
  84. Duration                    : 2 h 14 min
  85. Bit rate                    : 32.4 kb/s
  86. Count of elements           : 3670
  87. Stream size                 : 31.0 MiB (1%)
  88. Language                    : English
  89. Default                     : Yes
  90. Forced                      : No
  91.  
  92. Menu
  93. 00:00:00.000                : en:The Story of Home

This paste is large and only partially shown.
View full paste

View raw paste Reply