Author: Not specified Language: text
Description: Not specified Timestamp: 2013-06-07 04:25:10 +0000
View raw paste Reply
  1. General
  2. Unique ID                                : 248210167192913797220820748419672821200 (0xBABB8A12D46BD936AC71E86DB79FCDD0)
  3. Complete name                            : E:\Phim\Double Tap 2000 mHD BluRay DD5.1 x264-EPiK\Double.Tap.2000.mHD.BluRay.DD5.1.x264-EPiK.mkv
  4. Format                                   : Matroska
  5. Format version                           : Version 2
  6. File size                                : 1.80 GiB
  7. Duration                                 : 1h 34mn
  8. Overall bit rate                         : 2 743 Kbps
  9. Encoded date                             : UTC 2012-07-08 01:30:59
  10. Writing application                      : mkvmerge v5.6.0 ('Kenya Kane') built on May 27 2012 16:44:04
  11. Writing library                          : libebml v1.2.3 + libmatroska v1.3.0
  12.  
  13. Video
  14. ID                                       : 1
  15. Format                                   : AVC
  16. Format/Info                              : Advanced Video Codec
  17. Format profile                           : High@L4.1
  18. Format settings, CABAC                   : Yes
  19. Format settings, ReFrames                : 9 frames
  20. Codec ID                                 : V_MPEG4/ISO/AVC
  21. Duration                                 : 1h 34mn
  22. Bit rate                                 : 2 240 Kbps
  23. Width                                    : 1 280 pixels
  24. Height                                   : 720 pixels
  25. Display aspect ratio                     : 16:9
  26. Frame rate mode                          : Constant
  27. Frame rate                               : 24.000 fps
  28. Color space                              : YUV
  29. Chroma subsampling                       : 4:2:0
  30. Bit depth                                : 8 bits
  31. Scan type                                : Progressive
  32. Bits/(Pixel*Frame)                       : 0.101
  33. Stream size                              : 1.47 GiB (82%)
  34. Writing library                          : x264 core 125 r2200 999b753
  35. Encoding settings                        : cabac=1 / ref=9 / deblock=1:-3:-3 / analyse=0x3:0x113 / me=umh / subme=9 / psy=1 / psy_rd=1.10:0.00 / mixed_ref=1 / me_range=16 / chroma_me=1 / trellis=2 / 8x8dct=1 / cqm=0 / deadzone=21,11 / fast_pskip=0 / chroma_qp_offset=-2 / threads=6 / lookahead_threads=1 / sliced_threads=0 / nr=0 / decimate=0 / interlaced=0 / bluray_compat=0 / constrained_intra=0 / bframes=7 / b_pyramid=2 / b_adapt=2 / b_bias=0 / direct=3 / weightb=1 / open_gop=0 / weightp=2 / keyint=250 / keyint_min=24 / scenecut=40 / intra_refresh=0 / rc=crf / mbtree=0 / crf=22.7 / qcomp=0.60 / qpmin=0 / qpmax=69 / qpstep=4 / ip_ratio=1.40 / pb_ratio=1.30 / aq=1:0.70
  36. Language                                 : Chinese
  37. Default                                  : Yes
  38. Forced                                   : No
  39.  
  40. Audio
  41. ID                                       : 2
  42. Format                                   : AC-3
  43. Format/Info                              : Audio Coding 3
  44. Mode extension                           : CM (complete main)
  45. Format settings, Endianness              : Big
  46. Codec ID                                 : A_AC3
  47. Duration                                 : 1h 34mn
  48. Bit rate mode                            : Constant
  49. Bit rate                                 : 448 Kbps
  50. Channel(s)                               : 6 channels
  51. Channel positions                        : Front: L C R, Side: L R, LFE
  52. Sampling rate                            : 48.0 KHz
  53. Bit depth                                : 16 bits
  54. Compression mode                         : Lossy
  55. Stream size                              : 301 MiB (16%)
  56. Language                                 : Chinese
  57. Default                                  : Yes
  58. Forced                                   : No
  59.  
  60. Text
  61. ID                                       : 3
  62. Format                                   : UTF-8
  63. Codec ID                                 : S_TEXT/UTF8
  64. Codec ID/Info                            : UTF-8 Plain Text
  65. Language                                 : English
  66. Default                                  : No
  67. Forced                                   : No
  68.  
  69. Menu
  70. 00:00:00.000                             : en:00:00:00.000
  71. 00:04:57.417                             : en:00:04:57.417
  72. 00:09:08.708                             : en:00:09:08.708
  73. 00:13:32.250                             : en:00:13:32.250
  74. 00:20:07.000                             : en:00:20:07.000
  75. 00:25:43.125                             : en:00:25:43.125
  76. 00:29:07.417                             : en:00:29:07.417
  77. 00:37:00.000                             : en:00:37:00.000
  78. 00:44:03.833                             : en:00:44:03.833
  79. 00:48:21.750                             : en:00:48:21.750
  80. 00:53:17.500                             : en:00:53:17.500
  81. 01:00:22.417                             : en:01:00:22.417
  82. 01:05:48.583                             : en:01:05:48.583
  83. 01:09:20.875                             : en:01:09:20.875
  84. 01:13:12.167                             : en:01:13:12.167
  85. 01:17:37.250                             : en:01:17:37.250
  86. 01:20:03.083                             : en:01:20:03.083

This paste is large and only partially shown.
View full paste

View raw paste Reply