Author: Not specified Language: text
Description: Not specified Timestamp: 2018-06-17 09:38:26 +0000
View raw paste Reply
  1. General
  2. Unique ID                   : 224077332347718378871355048886997244520 (0xA893B973C3EA0D3199DE475326DA5A68)
  3. Complete name               : D:\N\The.Incredibles.2004.REMASTERED.1080p.BluRay.x264.DD5.1-Pahe.in.mkv
  4. Format                      : Matroska
  5. Format version              : Version 4 / Version 2
  6. File size                   : 2.10 GiB
  7. Duration                    : 1 h 55 min
  8. Overall bit rate            : 2 612 kb/s
  9. Movie name                  : The Incredibles (2004)
  10. Encoded date                : UTC 2018-06-09 21:21:27
  11. Writing application         : mkvmerge v15.0.0 ('Duel with the Devil') 64-bit
  12. Writing library             : libebml v1.3.5 + libmatroska v1.4.5
  13. Cover                       : Yes
  14. Attachments                 : cover.jpg
  15. Encoded by                  : ʕ·ᴥ· ʔ Pahe.in
  16.  
  17. Video
  18. ID                          : 1
  19. Format                      : AVC
  20. Format/Info                 : Advanced Video Codec
  21. Format profile              : High@L4.1
  22. Format settings             : CABAC / 5 Ref Frames
  23. Format settings, CABAC      : Yes
  24. Format settings, ReFrames   : 5 frames
  25. Codec ID                    : V_MPEG4/ISO/AVC
  26. Duration                    : 1 h 55 min
  27. Bit rate                    : 2 214 kb/s
  28. Width                       : 1 920 pixels
  29. Height                      : 800 pixels
  30. Display aspect ratio        : 2.40:1
  31. Frame rate mode             : Constant
  32. Frame rate                  : 23.976 (24000/1001) FPS
  33. Color space                 : YUV
  34. Chroma subsampling          : 4:2:0
  35. Bit depth                   : 8 bits
  36. Scan type                   : Progressive
  37. Bits/(Pixel*Frame)          : 0.060
  38. Stream size                 : 1.78 GiB (85%)
  39. Writing library             : x264 core 152 r2851 ba24899
  40. Encoding settings           : cabac=1 / ref=5 / deblock=1:-2:-2 / analyse=0x3:0x133 / me=umh / subme=10 / psy=1 / psy_rd=1.00:0.15 / mixed_ref=1 / me_range=32 / chroma_me=1 / trellis=2 / 8x8dct=1 / cqm=0 / deadzone=21,11 / fast_pskip=1 / chroma_qp_offset=-3 / threads=18 / lookahead_threads=3 / sliced_threads=0 / nr=0 / decimate=1 / interlaced=0 / bluray_compat=0 / constrained_intra=0 / bframes=8 / b_pyramid=2 / b_adapt=2 / b_bias=0 / direct=3 / weightb=1 / open_gop=0 / weightp=2 / keyint=250 / keyint_min=23 / scenecut=40 / intra_refresh=0 / rc_lookahead=60 / rc=crf / mbtree=1 / crf=22.0 / qcomp=0.60 / qpmin=0 / qpmax=69 / qpstep=4 / vbv_maxrate=27500 / vbv_bufsize=25000 / crf_max=0.0 / nal_hrd=none / filler=0 / ip_ratio=1.30 / aq=1:0.80
  41. Default                     : Yes
  42. Forced                      : No
  43.  
  44. Audio
  45. ID                          : 2
  46. Format                      : AC-3
  47. Format/Info                 : Audio Coding 3
  48. Codec ID                    : A_AC3
  49. Duration                    : 1 h 55 min
  50. Bit rate mode               : Constant
  51. Bit rate                    : 384 kb/s
  52. Channel(s)                  : 6 channels
  53. Channel positions           : Front: L C R, Side: L R, LFE
  54. Sampling rate               : 48.0 kHz
  55. Frame rate                  : 31.250 FPS (1536 SPF)
  56. Bit depth                   : 16 bits
  57. Compression mode            : Lossy
  58. Delay relative to video     : 32 ms
  59. Stream size                 : 317 MiB (15%)
  60. Language                    : English
  61. Service kind                : Complete Main
  62. Default                     : No
  63. Forced                      : No
  64.  
  65. Text #1
  66. ID                          : 3
  67. Format                      : UTF-8
  68. Codec ID                    : S_TEXT/UTF8
  69. Codec ID/Info               : UTF-8 Plain Text
  70. Duration                    : 1 h 46 min
  71. Bit rate                    : 58 b/s
  72. Count of elements           : 1195
  73. Stream size                 : 45.6 KiB (0%)
  74. Language                    : English
  75. Default                     : No
  76. Forced                      : No
  77.  
  78. Text #2
  79. ID                          : 4
  80. Format                      : PGS
  81. Muxing mode                 : zlib
  82. Codec ID                    : S_HDMV/PGS
  83. Codec ID/Info               : Picture based subtitle format used on BDs/HD-DVDs
  84. Duration                    : 1 h 49 min
  85. Bit rate                    : 39.0 kb/s
  86. Count of elements           : 2668
  87. Stream size                 : 30.7 MiB (1%)
  88. Language                    : English
  89. Default                     : Yes
  90. Forced                      : No
  91.  
  92. Menu
  93. 00:00:00.000                : en:Chapter 1
  94. 00:09:15.388                : en:Chapter 2
  95. 00:11:33.567                : en:Chapter 3
  96. 00:13:32.186                : en:Chapter 4
  97. 00:17:09.361                : en:Chapter 5
  98. 00:20:45.744                : en:Chapter 6
  99. 00:26:54.362                : en:Chapter 7
  100. 00:30:43.049                : en:Chapter 8
  101. 00:34:55.426                : en:Chapter 9
  102. 00:41:28.068                : en:Chapter 10
  103. 00:46:02.509                : en:Chapter 11
  104. 00:48:55.348                : en:Chapter 12
  105. 00:50:02.958                : en:Chapter 13
  106. 00:54:02.614                : en:Chapter 14
  107. 00:57:10.385                : en:Chapter 15
  108. 01:00:36.632                : en:Chapter 16
  109. 01:05:05.693                : en:Chapter 17
  110. 01:10:54.541                : en:Chapter 18

This paste is large and only partially shown.
View full paste

View raw paste Reply