Author: Not specified Language: text
Description: Not specified Timestamp: 2018-05-27 08:24:48 +0000
View raw paste Child paste by: Not specified Reply
  1. General
  2. Unique ID                   : 195381176079238934419037759033766746498 (0x92FD0BB6CCDBD1DD9B7D7D6E9D269982)
  3. Complete name               : D:\N\Iron.Man.2.2010.REMASTERED.1080p.BluRay.x264.DD5.1-Pahe.in.mkv
  4. Format                      : Matroska
  5. Format version              : Version 4 / Version 2
  6. File size                   : 2.94 GiB
  7. Duration                    : 2 h 4 min
  8. Overall bit rate            : 3 364 kb/s
  9. Movie name                  : Iron Man 2 (2010)
  10. Encoded date                : UTC 2018-05-27 02:33:47
  11. Writing application         : mkvmerge v15.0.0 ('Duel with the Devil') 64-bit
  12. Writing library             : libebml v1.3.5 + libmatroska v1.4.5
  13. Cover                       : Yes
  14. Attachments                 : cover.jpg
  15. Encoded by                  : ʕ·ᴥ· ʔ Pahe.in
  16.  
  17. Video
  18. ID                          : 1
  19. Format                      : AVC
  20. Format/Info                 : Advanced Video Codec
  21. Format profile              : High@L4.1
  22. Format settings             : CABAC / 5 Ref Frames
  23. Format settings, CABAC      : Yes
  24. Format settings, ReFrames   : 5 frames
  25. Codec ID                    : V_MPEG4/ISO/AVC
  26. Duration                    : 2 h 4 min
  27. Bit rate                    : 2 978 kb/s
  28. Width                       : 1 920 pixels
  29. Height                      : 800 pixels
  30. Display aspect ratio        : 2.40:1
  31. Frame rate mode             : Constant
  32. Frame rate                  : 23.976 (24000/1001) FPS
  33. Color space                 : YUV
  34. Chroma subsampling          : 4:2:0
  35. Bit depth                   : 8 bits
  36. Scan type                   : Progressive
  37. Bits/(Pixel*Frame)          : 0.081
  38. Stream size                 : 2.60 GiB (89%)
  39. Writing library             : x264 core 152 r2851 ba24899
  40. Encoding settings           : cabac=1 / ref=5 / deblock=1:-3:-3 / analyse=0x3:0x133 / me=umh / subme=10 / psy=1 / psy_rd=1.00:0.15 / mixed_ref=1 / me_range=48 / chroma_me=1 / trellis=2 / 8x8dct=1 / cqm=0 / deadzone=21,11 / fast_pskip=0 / chroma_qp_offset=-3 / threads=18 / lookahead_threads=3 / sliced_threads=0 / nr=0 / decimate=0 / interlaced=0 / bluray_compat=0 / constrained_intra=0 / bframes=8 / b_pyramid=2 / b_adapt=2 / b_bias=0 / direct=3 / weightb=1 / open_gop=0 / weightp=2 / keyint=250 / keyint_min=23 / scenecut=40 / intra_refresh=0 / rc_lookahead=60 / rc=crf / mbtree=0 / crf=25.2 / qcomp=0.60 / qpmin=0 / qpmax=69 / qpstep=4 / vbv_maxrate=35000 / vbv_bufsize=30000 / crf_max=0.0 / nal_hrd=none / filler=0 / ip_ratio=1.40 / pb_ratio=1.30 / aq=3:0.90
  41. Default                     : Yes
  42. Forced                      : No
  43. Color range                 : Limited
  44. Color primaries             : BT.709
  45. Matrix coefficients         : BT.709
  46.  
  47. Audio
  48. ID                          : 2
  49. Format                      : AC-3
  50. Format/Info                 : Audio Coding 3
  51. Codec ID                    : A_AC3
  52. Duration                    : 2 h 4 min
  53. Bit rate mode               : Constant
  54. Bit rate                    : 384 kb/s
  55. Channel(s)                  : 6 channels
  56. Channel positions           : Front: L C R, Side: L R, LFE
  57. Sampling rate               : 48.0 kHz
  58. Frame rate                  : 31.250 FPS (1536 SPF)
  59. Bit depth                   : 16 bits
  60. Compression mode            : Lossy
  61. Stream size                 : 343 MiB (11%)
  62. Language                    : English
  63. Service kind                : Complete Main
  64. Default                     : No
  65. Forced                      : No
  66.  
  67. Text
  68. ID                          : 3
  69. Format                      : UTF-8
  70. Codec ID                    : S_TEXT/UTF8
  71. Codec ID/Info               : UTF-8 Plain Text
  72. Duration                    : 2 h 4 min
  73. Bit rate                    : 65 b/s
  74. Count of elements           : 1532
  75. Stream size                 : 59.6 KiB (0%)
  76. Language                    : English
  77. Default                     : Yes
  78. Forced                      : No
  79.  
  80. Menu
  81. 00:00:00.000                : en:Chapter 1
  82. 00:05:25.157                : en:Chapter 2
  83. 00:11:28.855                : en:Chapter 3
  84. 00:18:20.641                : en:Chapter 4
  85. 00:26:13.697                : en:Chapter 5
  86. 00:30:47.470                : en:Chapter 6
  87. 00:37:53.688                : en:Chapter 7
  88. 00:44:20.825                : en:Chapter 8
  89. 00:52:00.033                : en:Chapter 9
  90. 01:00:31.544                : en:Chapter 10
  91. 01:07:22.205                : en:Chapter 11
  92. 01:16:21.451                : en:Chapter 12
  93. 01:21:33.971                : en:Chapter 13
  94. 01:30:54.240                : en:Chapter 14
  95. 01:39:10.026                : en:Chapter 15
  96. 01:46:02.481                : en:Chapter 16
  97. 01:54:38.038                : en:Chapter 17
  98. 01:56:30.858                : en:Chapter 18
View raw paste Child paste by: Not specified Reply