Author: Madagascar 3 Europes Most Wanted 3D Language: text
Description: Not specified Timestamp: 2013-05-27 06:15:03 +0000
View raw paste Child paste by: Not specified Reply
  1. General
  2.  
  3. Complete name                            : Madagascar.3.Europes.Most.Wanted.(2012).BluRay.3D.1080p.x264.Dual-Audio-by.Rosum.mkv
  4. Format                                   : Matroska
  5. Format version                           : Version 4 / Version 2
  6. File size                                : 7.28 GiB
  7. Duration                                 : 1h 33mn
  8. Overall bit rate                         : 11.2 Mbps
  9. Movie name                               : Madagascar 3 Europes Most Wanted { 2012 } - Release for "rosum-clips.blogspot.com"
  10. Encoded date                             : UTC 2013-04-20 05:34:57
  11. Writing application                      : mkvmerge v6.1.0 ('Old Devil') built on Mar  2 2013 14:32:37
  12. Writing library                          : libebml v1.3.0 + libmatroska v1.4.0
  13.  
  14. Video
  15. ID                                       : 1
  16. Format                                   : AVC
  17. Format/Info                              : Advanced Video Codec
  18. Format profile                           : High@L4.1
  19. MultiView_Count                          : 2
  20. MultiView_Layout                         : Side by Side (left eye first)
  21. Format settings, CABAC                   : Yes
  22. Format settings, ReFrames                : 4 frames
  23. Codec ID                                 : V_MPEG4/ISO/AVC
  24. Duration                                 : 1h 33mn
  25. Bit rate                                 : 9 659 Kbps
  26. Width                                    : 1 920 pixels
  27. Height                                   : 1 080 pixels
  28. Display aspect ratio                     : 16:9
  29. Frame rate mode                          : Constant
  30. Frame rate                               : 23.976 fps
  31. Color space                              : YUV
  32. Chroma subsampling                       : 4:2:0
  33. Bit depth                                : 8 bits
  34. Scan type                                : Progressive
  35. Bits/(Pixel*Frame)                       : 0.194
  36. Stream size                              : 6.30 GiB (87%)
  37. Title                                    : Exclusive Release "Rosum"
  38. Writing library                          : x264 core 128 r2216 198a7ea
  39. Encoding settings                        : cabac=1 / ref=4 / deblock=1:-3:-3 / analyse=0x3:0x113 / me=umh / subme=10 / psy=1 / psy_rd=1.00:0.15 / mixed_ref=1 / me_range=32 / chroma_me=1 / trellis=2 / 8x8dct=1 / cqm=0 / deadzone=21,11 / fast_pskip=1 / chroma_qp_offset=-3 / threads=18 / lookahead_threads=3 / sliced_threads=0 / nr=0 / decimate=1 / interlaced=0 / bluray_compat=0 / constrained_intra=0 / bframes=6 / b_pyramid=2 / b_adapt=1 / b_bias=0 / direct=3 / weightb=1 / open_gop=0 / weightp=2 / keyint=250 / keyint_min=23 / scenecut=40 / intra_****************************=0 / rc_lookahead=40 / rc=crf / mbtree=1 / crf=18.0 / qcomp=0.60 / qpmin=10 / qpmax=69 / qpstep=4 / vbv_maxrate=40000 / vbv_bufsize=30000 / crf_max=0.0 / nal_hrd=none / ip_ratio=1.40 / aq=1:1.00
  40. ********************************                                 : English
  41. Default                                  : No
  42. Forced                                   : No
  43.  
  44. Audio #1
  45. ID                                       : 2
  46. Format                                   : AC-3
  47. Format/Info                              : Audio Coding 3
  48. Mode extension                           : CM (complete main)
  49. Format settings, Endianness              : Big
  50. Codec ID                                 : A_AC3
  51. Duration                                 : 1h 33mn
  52. Bit rate mode                            : Constant
  53. Bit rate                                 : 640 Kbps
  54. Channel(s)                               : 6 channels
  55. Channel positions                        : Front: L C R, Side: L R, LFE
  56. Sampling rate                            : 48.0 KHz
  57. Bit depth                                : 16 bits
  58. Compression mode                         : Lossy
  59. Stream size                              : 428 MiB (6%)
  60. Title                                    : Arabic, Original Blu-ray, AC3, 5.1 ch , 640 kbps, 48.0 KHz
  61. ********************************                                 : Arabic
  62. Default                                  : Yes
  63. Forced                                   : No
  64.  
  65. Audio #2
  66. ID                                       : 3
  67. Format                                   : AC-3
  68. Format/Info                              : Audio Coding 3
  69. Mode extension                           : CM (complete main)
  70. Format settings, Endianness              : Big
  71. Codec ID                                 : A_AC3
  72. Duration                                 : 1h 33mn
  73. Bit rate mode                            : Constant
  74. Bit rate                                 : 640 Kbps
  75. Channel(s)                               : 6 channels
  76. Channel positions                        : Front: L C R, Side: L R, LFE
  77. Sampling rate                            : 48.0 KHz
  78. Bit depth                                : 16 bits
  79. Compression mode                         : Lossy
  80. Stream size                              : 428 MiB (6%)
  81. Title                                    : English, Original Blu-ray, AC3, 5.1 ch , 640 kbps, 48.0 KHz

This paste is large and only partially shown.
View full paste

View raw paste Child paste by: Not specified Reply