Author: Not specified Language: text
Description: Not specified Timestamp: 2018-11-12 22:44:33 +0000
View raw paste Child paste by: Not specified Reply
  1. General
  2. Unique ID                   : 63910704428833341600809481286407775586 (0x3014C1026279DCBA8487C64B8F296562)
  3. Complete name               : E:\The.Equalizer.2.2018.1080p.BluRay.x264.DD5.1-Pahe.in.mkv
  4. Format                      : Matroska
  5. Format version              : Version 4 / Version 2
  6. File size                   : 2.41 GiB
  7. Duration                    : 2 h 0 min
  8. Overall bit rate            : 2 858 kb/s
  9. Movie name                  : The Equalizer 2 (2018)
  10. Encoded date                : UTC 2018-11-12 15:17:17
  11. Writing application         : mkvmerge v24.0.0 ('Beyond The Pale') 64-bit
  12. Writing library             : libebml v1.3.6 + libmatroska v1.4.9
  13. Cover                       : Yes
  14. Attachments                 : cover.jpg
  15. Encoded by                  : Pahe.in™ Team
  16.  
  17. Video
  18. ID                          : 1
  19. Format                      : AVC
  20. Format/Info                 : Advanced Video Codec
  21. Format profile              : High@L4.1
  22. Format settings             : CABAC / 5 Ref Frames
  23. Format settings, CABAC      : Yes
  24. Format settings, ReFrames   : 5 frames
  25. Codec ID                    : V_MPEG4/ISO/AVC
  26. Duration                    : 2 h 0 min
  27. Bit rate                    : 2 461 kb/s
  28. Width                       : 1 920 pixels
  29. Height                      : 800 pixels
  30. Display aspect ratio        : 2.40:1
  31. Frame rate mode             : Constant
  32. Frame rate                  : 23.976 (24000/1001) FPS
  33. Color space                 : YUV
  34. Chroma subsampling          : 4:2:0
  35. Bit depth                   : 8 bits
  36. Scan type                   : Progressive
  37. Bits/(Pixel*Frame)          : 0.067
  38. Stream size                 : 2.08 GiB (86%)
  39. Writing library             : x264 core 155 r2901 7d0ff22
  40. Encoding settings           : cabac=1 / ref=5 / deblock=1:-3:-3 / analyse=0x3:0x133 / me=umh / subme=10 / psy=1 / psy_rd=1.00:0.15 / mixed_ref=1 / me_range=48 / chroma_me=1 / trellis=2 / 8x8dct=1 / cqm=0 / deadzone=21,11 / fast_pskip=0 / chroma_qp_offset=-3 / threads=18 / lookahead_threads=3 / sliced_threads=0 / nr=0 / decimate=0 / interlaced=0 / bluray_compat=0 / constrained_intra=0 / bframes=8 / b_pyramid=2 / b_adapt=2 / b_bias=0 / direct=3 / weightb=1 / open_gop=0 / weightp=2 / keyint=250 / keyint_min=23 / scenecut=40 / intra_refresh=0 / rc_lookahead=60 / rc=crf / mbtree=0 / crf=23.8 / qcomp=0.60 / qpmin=0 / qpmax=69 / qpstep=4 / vbv_maxrate=33500 / vbv_bufsize=30000 / crf_max=0.0 / nal_hrd=none / filler=0 / ip_ratio=1.30 / pb_ratio=1.20 / aq=3:0.80
  41. Default                     : Yes
  42. Forced                      : No
  43.  
  44. Audio
  45. ID                          : 2
  46. Format                      : AC-3
  47. Format/Info                 : Audio Coding 3
  48. Commercial name             : Dolby Digital
  49. Codec ID                    : A_AC3
  50. Duration                    : 2 h 0 min
  51. Bit rate mode               : Constant
  52. Bit rate                    : 384 kb/s
  53. Channel(s)                  : 6 channels
  54. Channel layout              : L R C LFE Ls Rs
  55. Sampling rate               : 48.0 kHz
  56. Frame rate                  : 31.250 FPS (1536 SPF)
  57. Bit depth                   : 16 bits
  58. Compression mode            : Lossy
  59. Stream size                 : 332 MiB (13%)
  60. Language                    : English
  61. Service kind                : Complete Main
  62. Default                     : No
  63. Forced                      : No
  64.  
  65. Text #1
  66. ID                          : 3
  67. Format                      : PGS
  68. Muxing mode                 : zlib
  69. Codec ID                    : S_HDMV/PGS
  70. Codec ID/Info               : Picture based subtitle format used on BDs/HD-DVDs
  71. Duration                    : 41 min 15 s
  72. Bit rate                    : 415 b/s
  73. Count of elements           : 22
  74. Stream size                 : 126 KiB (0%)
  75. Title                       : forced
  76. Language                    : English
  77. Default                     : No
  78. Forced                      : No
  79.  
  80. Text #2
  81. ID                          : 4
  82. Format                      : PGS
  83. Muxing mode                 : zlib
  84. Codec ID                    : S_HDMV/PGS
  85. Codec ID/Info               : Picture based subtitle format used on BDs/HD-DVDs
  86. Duration                    : 1 h 56 min
  87. Bit rate                    : 23.0 kb/s
  88. Count of elements           : 2090
  89. Stream size                 : 19.2 MiB (1%)
  90. Language                    : English
  91. Default                     : Yes
  92. Forced                      : No
  93.  
  94. Menu
  95. 00:00:00.000                : en:Chapter 1
  96. 00:01:31.758                : en:Chapter 2
  97. 00:01:58.577                : en:Chapter 3
  98. 00:04:54.127                : en:Chapter 4
  99. 00:05:33.041                : en:Chapter 5
  100. 00:05:51.893                : en:Chapter 6
  101. 00:06:24.092                : en:Chapter 7
  102. 00:06:55.498                : en:Chapter 8
  103. 00:07:06.635                : en:Chapter 9
  104. 00:07:35.622                : en:Chapter 10
  105. 00:07:53.765                : en:Chapter 11
  106. 00:08:09.781                : en:Chapter 12
  107. 00:08:21.793                : en:Chapter 13
  108. 00:08:38.935                : en:Chapter 14
  109. 00:09:08.840                : en:Chapter 15
  110. 00:09:44.375                : en:Chapter 16

This paste is large and only partially shown.
View full paste

View raw paste Child paste by: Not specified Reply