Author: Not specified Language: text
Description: Not specified Timestamp: 2018-01-18 23:11:21 +0000
View raw paste Reply
  1. General
  2. Unique ID                   : 207499693380037016730002835375511873400 (0x9C1AFCBF3EE870E8836201B97058A778)
  3. Complete name               : D:\N\Jumanji.1995.REMASTERED.1080p.BluRay.x264.DD5.1-Pahe.in.mkv
  4. Format                      : Matroska
  5. Format version              : Version 4 / Version 2
  6. File size                   : 2.57 GiB
  7. Duration                    : 1 h 44 min
  8. Overall bit rate            : 3 529 kb/s
  9. Movie name                  : Jumanji (1995) - 4K Remastered
  10. Encoded date                : UTC 2018-01-17 20:22:38
  11. Writing application         : mkvmerge v13.0.0 ('The Juggler') 64bit
  12. Writing library             : libebml v1.3.4 + libmatroska v1.4.5
  13. Cover                       : Yes
  14. Attachments                 : cover.jpg
  15. Encoded by                  : Pahe.in™ Team
  16.  
  17. Video
  18. ID                          : 1
  19. Format                      : AVC
  20. Format/Info                 : Advanced Video Codec
  21. Format profile              : High@L4.1
  22. Format settings             : CABAC / 4 Ref Frames
  23. Format settings, CABAC      : Yes
  24. Format settings, ReFrames   : 4 frames
  25. Codec ID                    : V_MPEG4/ISO/AVC
  26. Duration                    : 1 h 44 min
  27. Bit rate                    : 3 130 kb/s
  28. Width                       : 1 920 pixels
  29. Height                      : 1 040 pixels
  30. Display aspect ratio        : 1.85:1
  31. Frame rate mode             : Constant
  32. Frame rate                  : 23.976 (24000/1001) FPS
  33. Color space                 : YUV
  34. Chroma subsampling          : 4:2:0
  35. Bit depth                   : 8 bits
  36. Scan type                   : Progressive
  37. Bits/(Pixel*Frame)          : 0.065
  38. Stream size                 : 2.28 GiB (89%)
  39. Writing library             : x264 core 152 r2851 ba24899
  40. Encoding settings           : cabac=1 / ref=4 / deblock=1:-3:-3 / analyse=0x3:0x133 / me=umh / subme=10 / psy=1 / psy_rd=1.00:0.15 / mixed_ref=1 / me_range=32 / chroma_me=1 / trellis=2 / 8x8dct=1 / cqm=0 / deadzone=21,11 / fast_pskip=0 / chroma_qp_offset=-3 / threads=18 / lookahead_threads=3 / sliced_threads=0 / nr=0 / decimate=0 / interlaced=0 / bluray_compat=0 / constrained_intra=0 / bframes=8 / b_pyramid=2 / b_adapt=2 / b_bias=0 / direct=3 / weightb=1 / open_gop=0 / weightp=2 / keyint=250 / keyint_min=23 / scenecut=40 / intra_refresh=0 / rc_lookahead=60 / rc=crf / mbtree=0 / crf=27.5 / qcomp=0.70 / qpmin=0 / qpmax=69 / qpstep=4 / vbv_maxrate=45800 / vbv_bufsize=36000 / crf_max=0.0 / nal_hrd=none / filler=0 / ip_ratio=1.30 / pb_ratio=1.20 / aq=1:0.80
  41. Default                     : Yes
  42. Forced                      : No
  43.  
  44. Audio
  45. ID                          : 2
  46. Format                      : AC-3
  47. Format/Info                 : Audio Coding 3
  48. Codec ID                    : A_AC3
  49. Duration                    : 1 h 44 min
  50. Bit rate mode               : Constant
  51. Bit rate                    : 384 kb/s
  52. Channel(s)                  : 6 channels
  53. Channel positions           : Front: L C R, Side: L R, LFE
  54. Sampling rate               : 48.0 kHz
  55. Frame rate                  : 31.250 FPS (1536 SPF)
  56. Bit depth                   : 16 bits
  57. Compression mode            : Lossy
  58. Stream size                 : 286 MiB (11%)
  59. Language                    : English
  60. Service kind                : Complete Main
  61. Default                     : No
  62. Forced                      : No
  63.  
  64. Text #1
  65. ID                          : 3
  66. Format                      : UTF-8
  67. Codec ID                    : S_TEXT/UTF8
  68. Codec ID/Info               : UTF-8 Plain Text
  69. Duration                    : 1 s 501 ms
  70. Bit rate                    : 95 b/s
  71. Count of elements           : 1
  72. Stream size                 : 18.0 Bytes (0%)
  73. Language                    : English
  74. Default                     : No
  75. Forced                      : Yes
  76.  
  77. Text #2
  78. ID                          : 4
  79. Format                      : UTF-8
  80. Codec ID                    : S_TEXT/UTF8
  81. Codec ID/Info               : UTF-8 Plain Text
  82. Duration                    : 1 h 37 min
  83. Bit rate                    : 44 b/s
  84. Count of elements           : 1003
  85. Stream size                 : 32.0 KiB (0%)
  86. Language                    : English
  87. Default                     : No
  88. Forced                      : No
  89.  
  90. Text #3
  91. ID                          : 5
  92. Format                      : PGS
  93. Muxing mode                 : zlib
  94. Codec ID                    : S_HDMV/PGS
  95. Codec ID/Info               : Picture based subtitle format used on BDs/HD-DVDs
  96. Duration                    : 1 h 37 min
  97. Bit rate                    : 32.0 kb/s
  98. Count of elements           : 2717
  99. Stream size                 : 22.4 MiB (1%)
  100. Language                    : English
  101. Default                     : Yes
  102. Forced                      : No
  103.  
  104. Menu
  105. 00:00:00.000                : en:Madam Serena
  106. 00:08:17.205                : en:"I'm Back!"
  107. 00:15:17.542                : en:Drumbeats
  108. 00:20:29.019                : en:Bats in the Attic
  109. 00:28:11.189                : en:In the Jungle
  110. 00:33:07.110                : en:A Really Weird Game
  111. 00:41:06.756                : en:Digging Out the Past
  112. 00:45:01.324                : en:Start

This paste is large and only partially shown.
View full paste

View raw paste Reply