Author: Not specified Language: text
Description: Not specified Timestamp: 2018-05-27 08:25:36 +0000
View raw paste Reply
  1. General
  2. Unique ID                   : 228436577742832393264486589946013905518 (0xABDB48D80F916D57A5BB8E17A62F726E)
  3. Complete name               : D:\N\Jurassic.Park.1993.REMASTERED.1080p.BluRay.x264.DD5.1-Pahe.in.mkv
  4. Format                      : Matroska
  5. Format version              : Version 4 / Version 2
  6. File size                   : 3.44 GiB
  7. Duration                    : 2 h 6 min
  8. Overall bit rate            : 3 892 kb/s
  9. Movie name                  : Jurassic Park (1993) - 4K Remastered
  10. Encoded date                : UTC 2018-05-25 09:44:16
  11. Writing application         : mkvmerge v15.0.0 ('Duel with the Devil') 64-bit
  12. Writing library             : libebml v1.3.5 + libmatroska v1.4.5
  13. Cover                       : Yes
  14. Attachments                 : cover.jpg
  15. Encoded by                  : ʕ·ᴥ· ʔ Pahe.in
  16.  
  17. Video
  18. ID                          : 1
  19. Format                      : AVC
  20. Format/Info                 : Advanced Video Codec
  21. Format profile              : High@L4.1
  22. Format settings             : CABAC / 4 Ref Frames
  23. Format settings, CABAC      : Yes
  24. Format settings, ReFrames   : 4 frames
  25. Codec ID                    : V_MPEG4/ISO/AVC
  26. Duration                    : 2 h 6 min
  27. Bit rate                    : 3 500 kb/s
  28. Width                       : 1 920 pixels
  29. Height                      : 1 038 pixels
  30. Display aspect ratio        : 1.85:1
  31. Frame rate mode             : Constant
  32. Frame rate                  : 23.976 (24000/1001) FPS
  33. Color space                 : YUV
  34. Chroma subsampling          : 4:2:0
  35. Bit depth                   : 8 bits
  36. Scan type                   : Progressive
  37. Bits/(Pixel*Frame)          : 0.073
  38. Stream size                 : 3.09 GiB (90%)
  39. Writing library             : x264 core 152 r2851 ba24899
  40. Encoding settings           : cabac=1 / ref=4 / deblock=1:-3:-3 / analyse=0x3:0x133 / me=umh / subme=10 / psy=1 / psy_rd=1.00:0.15 / mixed_ref=1 / me_range=48 / chroma_me=1 / trellis=2 / 8x8dct=1 / cqm=0 / deadzone=21,11 / fast_pskip=0 / chroma_qp_offset=-3 / threads=18 / lookahead_threads=3 / sliced_threads=0 / nr=0 / decimate=0 / interlaced=0 / bluray_compat=0 / constrained_intra=0 / bframes=8 / b_pyramid=2 / b_adapt=2 / b_bias=0 / direct=3 / weightb=1 / open_gop=0 / weightp=2 / keyint=250 / keyint_min=23 / scenecut=40 / intra_refresh=0 / rc_lookahead=60 / rc=2pass / mbtree=0 / bitrate=3500 / ratetol=1.0 / qcomp=0.60 / qpmin=0 / qpmax=69 / qpstep=4 / cplxblur=20.0 / qblur=0.5 / vbv_maxrate=35000 / vbv_bufsize=30000 / nal_hrd=none / filler=0 / ip_ratio=1.30 / pb_ratio=1.20 / aq=3:0.80
  41. Default                     : Yes
  42. Forced                      : No
  43. Color range                 : Limited
  44. Matrix coefficients         : BT.709
  45.  
  46. Audio
  47. ID                          : 2
  48. Format                      : AC-3
  49. Format/Info                 : Audio Coding 3
  50. Codec ID                    : A_AC3
  51. Duration                    : 2 h 6 min
  52. Bit rate mode               : Constant
  53. Bit rate                    : 384 kb/s
  54. Channel(s)                  : 6 channels
  55. Channel positions           : Front: L C R, Side: L R, LFE
  56. Sampling rate               : 48.0 kHz
  57. Frame rate                  : 31.250 FPS (1536 SPF)
  58. Bit depth                   : 16 bits
  59. Compression mode            : Lossy
  60. Stream size                 : 347 MiB (10%)
  61. Title                       : Encoded by Pahe.in
  62. Language                    : English
  63. Service kind                : Complete Main
  64. Default                     : Yes
  65. Forced                      : No
  66.  
  67. Text #1
  68. ID                          : 3
  69. Format                      : UTF-8
  70. Codec ID                    : S_TEXT/UTF8
  71. Codec ID/Info               : UTF-8 Plain Text
  72. Duration                    : 1 h 57 min
  73. Bit rate                    : 48 b/s
  74. Count of elements           : 1220
  75. Stream size                 : 41.4 KiB (0%)
  76. Language                    : English
  77. Default                     : No
  78. Forced                      : No
  79.  
  80. Text #2
  81. ID                          : 4
  82. Format                      : PGS
  83. Muxing mode                 : zlib
  84. Codec ID                    : S_HDMV/PGS
  85. Codec ID/Info               : Picture based subtitle format used on BDs/HD-DVDs
  86. Duration                    : 2 h 1 min
  87. Bit rate                    : 34.9 kb/s
  88. Count of elements           : 2834
  89. Stream size                 : 30.4 MiB (1%)
  90. Language                    : English
  91. Default                     : Yes
  92. Forced                      : No
  93.  
  94. Text #3
  95. ID                          : 5
  96. Format                      : UTF-8
  97. Codec ID                    : S_TEXT/UTF8
  98. Codec ID/Info               : UTF-8 Plain Text
  99. Duration                    : 1 h 56 min
  100. Bit rate                    : 48 b/s
  101. Count of elements           : 1073
  102. Stream size                 : 41.1 KiB (0%)
  103. Title                       : original-DVD
  104. Language                    : Indonesian
  105. Default                     : No
  106. Forced                      : No
  107.  
  108. Menu
  109. 00:00:00.000                : en:Monster in a Box
  110. 00:05:19.819                : en:The Diggers
  111. 00:10:14.739                : en:Hammond's Invitation

This paste is large and only partially shown.
View full paste

View raw paste Reply