Author: Not specified Language: text
Description: Not specified Timestamp: 2013-06-17 04:28:25 +0000
View raw paste Reply
  1. General
  2. Unique ID                                : 198378802294779220868670178687369621318 (0x953E5E18E0F372B6AC956B31E0442F46)
  3. Complete name                            : E:\Phim\[YumeiAnime]Phoenix\[YumeiAnime]Phoenix01[6FE3AE4E].mkv
  4. Format                                   : Matroska
  5. Format version                           : Version 1
  6. File size                                : 173 MiB
  7. Duration                                 : 25mn 31s
  8. Overall bit rate                         : 948 Kbps
  9. Encoded date                             : UTC 2009-10-27 04:09:33
  10. Writing application                      : mkvmerge v2.4.2 ('Oh My God') built on Jan 18 2009 17:30:28
  11. Writing library                          : libebml v0.7.7 + libmatroska v0.8.1
  12.  
  13. Video
  14. ID                                       : 1
  15. Format                                   : AVC
  16. Format/Info                              : Advanced Video Codec
  17. Format profile                           : High@L5.1
  18. Format settings, CABAC                   : Yes
  19. Format settings, ReFrames                : 5 frames
  20. Codec ID                                 : V_MPEG4/ISO/AVC
  21. Duration                                 : 25mn 31s
  22. Bit rate                                 : 849 Kbps
  23. Nominal bit rate                         : 1 500 Kbps
  24. Width                                    : 860 pixels
  25. Height                                   : 474 pixels
  26. Display aspect ratio                     : 16:9
  27. Frame rate mode                          : Constant
  28. Frame rate                               : 29.970 fps
  29. Color space                              : YUV
  30. Chroma subsampling                       : 4:2:0
  31. Bit depth                                : 8 bits
  32. Scan type                                : Progressive
  33. Bits/(Pixel*Frame)                       : 0.070
  34. Stream size                              : 155 MiB (90%)
  35. Writing library                          : x264 core 68 r1183M f21daff
  36. Encoding settings                        : cabac=1 / ref=5 / deblock=1:1:1 / analyse=0x3:0x113 / me=umh / subme=7 / psy_rd=1.0:0.5 / mixed_ref=1 / me_range=16 / chroma_me=1 / trellis=2 / 8x8dct=1 / cqm=0 / deadzone=21,11 / chroma_qp_offset=-4 / threads=3 / nr=2 / decimate=0 / mbaff=0 / bframes=5 / b_pyramid=1 / b_adapt=1 / b_bias=0 / direct=2 / wpredb=1 / keyint=250 / keyint_min=25 / scenecut=40 / rc=2pass / bitrate=1500 / ratetol=1.0 / qcomp=0.60 / qpmin=10 / qpmax=51 / qpstep=4 / cplxblur=20.0 / qblur=0.5 / ip_ratio=1.40 / pb_ratio=1.30 / aq=1:1.00
  37. Default                                  : Yes
  38. Forced                                   : No
  39.  
  40. Audio
  41. ID                                       : 2
  42. Format                                   : MPEG Audio
  43. Format version                           : Version 1
  44. Format profile                           : Layer 3
  45. Mode                                     : Joint stereo
  46. Mode extension                           : MS Stereo
  47. Codec ID                                 : A_MPEG/L3
  48. Codec ID/Hint                            : MP3
  49. Duration                                 : 25mn 31s
  50. Bit rate mode                            : Constant
  51. Bit rate                                 : 80.0 Kbps
  52. Channel(s)                               : 2 channels
  53. Sampling rate                            : 48.0 KHz
  54. Compression mode                         : Lossy
  55. Stream size                              : 14.6 MiB (8%)
  56. Default                                  : Yes
  57. Forced                                   : No
View raw paste Reply