Author: Not specified Language: text
Description: Not specified Timestamp: 2017-07-03 10:52:09 +0000
View raw paste Child paste by: Not specified Reply
  1. General
  2. Unique ID                   : 170616954724186952946456327924395939576 (0x805BA15598AD2717B3DB6C12673E16F8)
  3. Format                      : Matroska
  4. Format version              : Version 4 / Version 2
  5. File size                   : 3.08 GiB
  6. Duration                    : 2 h 6 min
  7. Overall bit rate            : 3 481 kb/s
  8. Movie name                  : Jo-jak-doen do-si (2017) - Pahe.in
  9. Encoded date                : UTC 2017-07-03 02:44:15
  10. Writing application         : mkvmerge v9.6.0 ('Slave To Your Mind') 64bit
  11. Writing library             : libebml v1.3.4 + libmatroska v1.4.5
  12. Cover                       : Yes
  13. Attachments                 : cover.jpg
  14.  
  15. Video
  16. ID                          : 1
  17. Format                      : AVC
  18. Format/Info                 : Advanced Video Codec
  19. Format profile              : High@L4.1
  20. Format settings, CABAC      : Yes
  21. Format settings, ReFrames   : 5 frames
  22. Codec ID                    : V_MPEG4/ISO/AVC
  23. Duration                    : 2 h 6 min
  24. Bit rate                    : 3 082 kb/s
  25. Width                       : 1 920 pixels
  26. Height                      : 804 pixels
  27. Display aspect ratio        : 2.40:1
  28. Frame rate mode             : Constant
  29. Frame rate                  : 24.000 FPS
  30. Color space                 : YUV
  31. Chroma subsampling          : 4:2:0
  32. Bit depth                   : 8 bits
  33. Scan type                   : Progressive
  34. Bits/(Pixel*Frame)          : 0.083
  35. Stream size                 : 2.73 GiB (89%)
  36. Writing library             : x264 core 148 r2721 72d53ab
  37. Encoding settings           : cabac=1 / ref=5 / deblock=1:-3:-3 / analyse=0x3:0x133 / me=umh / subme=11 / psy=1 / psy_rd=1.00:0.15 / mixed_ref=1 / me_range=48 / chroma_me=1 / trellis=2 / 8x8dct=1 / cqm=0 / deadzone=21,11 / fast_pskip=0 / chroma_qp_offset=-3 / threads=25 / lookahead_threads=4 / sliced_threads=0 / nr=0 / decimate=0 / interlaced=0 / bluray_compat=0 / constrained_intra=0 / bframes=8 / b_pyramid=2 / b_adapt=2 / b_bias=0 / direct=3 / weightb=1 / open_gop=0 / weightp=2 / keyint=250 / keyint_min=24 / scenecut=40 / intra_refresh=0 / rc_lookahead=60 / rc=crf / mbtree=0 / crf=24.2 / qcomp=0.70 / qpmin=0 / qpmax=69 / qpstep=4 / vbv_maxrate=62500 / vbv_bufsize=78125 / crf_max=0.0 / nal_hrd=none / filler=0 / ip_ratio=1.40 / pb_ratio=1.30 / aq=1:0.80
  38. Default                     : Yes
  39. Forced                      : No
  40.  
  41. Audio
  42. ID                          : 2
  43. Format                      : AC-3
  44. Format/Info                 : Audio Coding 3
  45. Format settings, Endianness : Big
  46. Codec ID                    : A_AC3
  47. Duration                    : 2 h 6 min
  48. Bit rate mode               : Constant
  49. Bit rate                    : 384 kb/s
  50. Channel(s)                  : 6 channels
  51. Channel positions           : Front: L C R, Side: L R, LFE
  52. Sampling rate               : 48.0 kHz
  53. Frame rate                  : 31.250 FPS (1536 spf)
  54. Bit depth                   : 16 bits
  55. Compression mode            : Lossy
  56. Stream size                 : 348 MiB (11%)
  57. Title                       : Pahe.in Dolby Audio
  58. Language                    : Korean
  59. Service kind                : Complete Main
  60. Default                     : No
  61. Forced                      : No
  62.  
  63. Text
  64. ID                          : 3
  65. Format                      : PGS
  66. Muxing mode                 : zlib
  67. Codec ID                    : S_HDMV/PGS
  68. Codec ID/Info               : Picture based subtitle format used on BDs/HD-DVDs
  69. Duration                    : 2 h 2 min
  70. Bit rate                    : 13.2 kb/s
  71. Count of elements           : 2383
  72. Stream size                 : 11.6 MiB (0%)
  73. Language                    : English
  74. Default                     : Yes
  75. Forced                      : No
  76.  
  77. Menu
  78. 00:00:00.000                : en:Chapter 01
  79. 00:10:59.166                : en:Chapter 02
  80. 00:20:49.791                : en:Chapter 03
  81. 00:30:44.541                : en:Chapter 04
  82. 00:39:18.750                : en:Chapter 05
  83. 00:50:26.375                : en:Chapter 06
  84. 01:03:01.541                : en:Chapter 07
  85. 01:14:14.625                : en:Chapter 08
  86. 01:23:50.416                : en:Chapter 09
  87. 01:35:58.000                : en:Chapter 10
  88. 01:44:22.791                : en:Chapter 11
  89. 01:56:59.250                : en:Chapter 12
  90.  
  91.  
View raw paste Child paste by: Not specified Reply