Author: Not specified Language: text
Description: Not specified Timestamp: 2013-06-13 17:42:02 +0000
View raw paste Reply
  1. General
  2. Unique ID                                : 214402809882565823574702444367110098153 (0xA14C7AAAF967222DB716C4020BAA4CE9)
  3. Complete name                            : F:\Supick\03\The.Parent.Trap.1998.720p.WEB-CAP.DD5.1.x264-DFLIX\The.Parent.Trap.1998.720p.WEB-CAP.DD5.1.x264-DFLIX.mkv
  4. Format                                   : Matroska
  5. Format version                           : Version 2
  6. File size                                : 3.28 GiB
  7. Duration                                 : 2h 8mn
  8. Overall bit rate                         : 3 662 Kbps
  9. Encoded date                             : UTC 2012-02-03 07:07:48
  10. Writing application                      : mkvmerge v4.4.0 ('Die Wiederkehr') built on Oct 31 2010 21:52:48
  11. Writing library                          : libebml v1.0.0 + libmatroska v1.0.0
  12.  
  13. Video
  14. ID                                       : 1
  15. Format                                   : AVC
  16. Format/Info                              : Advanced Video Codec
  17. Format profile                           : High@L4.1
  18. Format settings, CABAC                   : Yes
  19. Format settings, ReFrames                : 9 frames
  20. Codec ID                                 : V_MPEG4/ISO/AVC
  21. Duration                                 : 2h 8mn
  22. Bit rate                                 : 3 219 Kbps
  23. Width                                    : 1 280 pixels
  24. Height                                   : 704 pixels
  25. Display aspect ratio                     : 16:9
  26. Frame rate                               : 23.976 fps
  27. Color space                              : YUV
  28. Chroma subsampling                       : 4:2:0
  29. Bit depth                                : 8 bits
  30. Scan type                                : Progressive
  31. Bits/(Pixel*Frame)                       : 0.149
  32. Stream size                              : 2.81 GiB (86%)
  33. Title                                    : Amazon 720p
  34. Writing library                          : x264 core 119 r2106 07efeb4
  35. Encoding settings                        : cabac=1 / ref=9 / deblock=1:0:0 / analyse=0x3:0x133 / me=umh / subme=10 / psy=1 / psy_rd=1.00:0.00 / mixed_ref=1 / me_range=24 / chroma_me=1 / trellis=2 / 8x8dct=1 / cqm=0 / deadzone=21,11 / fast_pskip=1 / chroma_qp_offset=-2 / threads=6 / sliced_threads=0 / nr=0 / decimate=1 / interlaced=0 / bluray_compat=0 / constrained_intra=0 / bframes=8 / b_pyramid=2 / b_adapt=2 / b_bias=0 / direct=3 / weightb=1 / open_gop=0 / weightp=2 / keyint=250 / keyint_min=23 / scenecut=40 / intra_refresh=0 / rc_lookahead=60 / rc=2pass / mbtree=1 / bitrate=3219 / ratetol=1.0 / qcomp=0.60 / qpmin=0 / qpmax=69 / qpstep=4 / cplxblur=20.0 / qblur=0.5 / ip_ratio=1.40 / aq=1:1.00
  36. Language                                 : English
  37. Default                                  : Yes
  38. Forced                                   : No
  39. Color primaries                          : BT.709-5, BT.1361, IEC 61966-2-4, SMPTE RP177
  40. Transfer characteristics                 : BT.709-5, BT.1361
  41. Matrix coefficients                      : BT.709-5, BT.1361, IEC 61966-2-4 709, SMPTE RP177
  42.  
  43. Audio
  44. ID                                       : 2
  45. Format                                   : AC-3
  46. Format/Info                              : Audio Coding 3
  47. Mode extension                           : CM (complete main)
  48. Codec ID                                 : A_AC3
  49. Duration                                 : 2h 8mn
  50. Bit rate mode                            : Constant
  51. Bit rate                                 : 448 Kbps
  52. Channel(s)                               : 6 channels
  53. Channel positions                        : Front: L C R, Side: L R, LFE
  54. Sampling rate                            : 48.0 KHz
  55. Bit depth                                : 16 bits
  56. Compression mode                         : Lossy
  57. Stream size                              : 411 MiB (12%)
  58. Title                                    : Dolby 5.1, NTSC DVD
  59. Language                                 : English
  60. Default                                  : Yes
  61. Forced                                   : No
  62.  
  63.  
  64.  
  65.  
  66.  
  67.  
  68.  
  69.  
  70.  
  71.  
  72.  
  73. General
  74. Unique ID                                : 244892696650868389379975241773193937762 (0xB83C9E25CAD41A7098F4622ED384C362)
  75. Complete name                            : F:\Supick\03\Snake.Eyes.1998.720p.WEB-DL.H264-dynam1te\Snake.Eyes.1998.720p.WEB-DL.H264-dynam1te.mkv
  76. Format                                   : Matroska
  77. Format version                           : Version 2
  78. File size                                : 2.95 GiB
  79. Duration                                 : 1h 38mn
  80. Overall bit rate                         : 4 285 Kbps
  81. Encoded date                             : UTC 2013-05-21 12:08:23
  82. Writing application                      : mkvmerge v4.0.0 ('The Stars were mine') built on Jun  6 2010 16:18:42
  83. Writing library                          : libebml v1.0.0 + libmatroska v1.0.0
  84.  
  85. Video
  86. ID                                       : 1
  87. Format                                   : AVC
  88. Format/Info                              : Advanced Video Codec
  89. Format profile                           : Main@L3.1

This paste is large and only partially shown.
View full paste

View raw paste Reply