Author: Not specified Language: text
Description: Not specified Timestamp: 2019-05-05 08:43:16 +0000
View raw paste Reply
  1. General
  2. Unique ID                   : 190194926296975121891597396357946047522 (0x8F1635DBA219D53B6307CADC4B287C22)
  3. Complete name               : F:\Zootopia.2016.1080p.BluRay.x264.DD5.1-Pahe.in.mkv
  4. Format                      : Matroska
  5. Format version              : Version 4
  6. File size                   : 1.93 GiB
  7. Duration                    : 1 h 48 min
  8. Overall bit rate            : 2 548 kb/s
  9. Movie name                  : Pahe.in - Zootopia 2016
  10. Encoded date                : UTC 2019-05-05 03:12:43
  11. Writing application         : mkvmerge v24.0.0 ('Beyond The Pale') 64-bit
  12. Writing library             : libebml v1.3.6 + libmatroska v1.4.9
  13. Cover                       : Yes
  14. Attachments                 : cover.jpg
  15. Encoded by                  : Pahe.in™ Team
  16.  
  17. Video
  18. ID                          : 1
  19. Format                      : AVC
  20. Format/Info                 : Advanced Video Codec
  21. Format profile              : High@L4.1
  22. Format settings             : CABAC / 5 Ref Frames
  23. Format settings, CABAC      : Yes
  24. Format settings, ReFrames   : 5 frames
  25. Codec ID                    : V_MPEG4/ISO/AVC
  26. Duration                    : 1 h 48 min
  27. Bit rate                    : 2 145 kb/s
  28. Width                       : 1 920 pixels
  29. Height                      : 804 pixels
  30. Display aspect ratio        : 2.40:1
  31. Frame rate mode             : Constant
  32. Frame rate                  : 23.976 (24000/1001) FPS
  33. Color space                 : YUV
  34. Chroma subsampling          : 4:2:0
  35. Bit depth                   : 8 bits
  36. Scan type                   : Progressive
  37. Bits/(Pixel*Frame)          : 0.058
  38. Stream size                 : 1.63 GiB (84%)
  39. Writing library             : x264 core 155 r2901 7d0ff22
  40. Encoding settings           : cabac=1 / ref=5 / deblock=1:-3:-3 / analyse=0x3:0x133 / me=umh / subme=10 / psy=1 / psy_rd=1.00:0.15 / mixed_ref=1 / me_range=48 / chroma_me=1 / trellis=2 / 8x8dct=1 / cqm=0 / deadzone=21,11 / fast_pskip=0 / chroma_qp_offset=-3 / threads=24 / lookahead_threads=4 / sliced_threads=0 / nr=0 / decimate=0 / interlaced=0 / bluray_compat=0 / constrained_intra=0 / bframes=8 / b_pyramid=2 / b_adapt=2 / b_bias=0 / direct=3 / weightb=1 / open_gop=0 / weightp=2 / keyint=250 / keyint_min=23 / scenecut=40 / intra_refresh=0 / rc_lookahead=60 / rc=crf / mbtree=0 / crf=23.7 / qcomp=0.60 / qpmin=0 / qpmax=69 / qpstep=4 / vbv_maxrate=33500 / vbv_bufsize=30000 / crf_max=0.0 / nal_hrd=none / filler=0 / ip_ratio=1.30 / pb_ratio=1.20 / aq=1:0.80
  41. Default                     : Yes
  42. Forced                      : No
  43.  
  44. Audio
  45. ID                          : 2
  46. Format                      : AC-3
  47. Format/Info                 : Audio Coding 3
  48. Commercial name             : Dolby Digital
  49. Codec ID                    : A_AC3
  50. Duration                    : 1 h 48 min
  51. Bit rate mode               : Constant
  52. Bit rate                    : 384 kb/s
  53. Channel(s)                  : 6 channels
  54. Channel layout              : L R C LFE Ls Rs
  55. Sampling rate               : 48.0 kHz
  56. Frame rate                  : 31.250 FPS (1536 SPF)
  57. Bit depth                   : 16 bits
  58. Compression mode            : Lossy
  59. Stream size                 : 298 MiB (15%)
  60. Language                    : English
  61. Service kind                : Complete Main
  62. Default                     : No
  63. Forced                      : No
  64.  
  65. Text
  66. ID                          : 3
  67. Format                      : PGS
  68. Muxing mode                 : zlib
  69. Codec ID                    : S_HDMV/PGS
  70. Codec ID/Info               : Picture based subtitle format used on BDs/HD-DVDs
  71. Duration                    : 1 h 46 min
  72. Bit rate                    : 53.1 kb/s
  73. Count of elements           : 4592
  74. Stream size                 : 40.6 MiB (2%)
  75. Language                    : English
  76. Default                     : Yes
  77. Forced                      : No
  78.  
  79. Menu
  80. 00:00:00.000                : en:Chapter 01
  81. 00:00:59.559                : en:Chapter 02
  82. 00:05:50.099                : en:Chapter 03
  83. 00:10:05.563                : en:Chapter 04
  84. 00:14:31.537                : en:Chapter 05
  85. 00:18:24.019                : en:Chapter 06
  86. 00:26:03.353                : en:Chapter 07
  87. 00:30:57.438                : en:Chapter 08
  88. 00:37:07.099                : en:Chapter 09
  89. 00:40:43.441                : en:Chapter 10
  90. 00:44:31.752                : en:Chapter 11
  91. 00:51:40.430                : en:Chapter 12
  92. 00:55:40.378                : en:Chapter 13
  93. 01:00:48.269                : en:Chapter 14
  94. 01:03:37.855                : en:Chapter 15
  95. 01:09:19.822                : en:Chapter 16
  96. 01:13:39.164                : en:Chapter 17
  97. 01:17:07.372                : en:Chapter 18
  98. 01:21:52.365                : en:Chapter 19
  99. 01:28:19.168                : en:Chapter 20
  100. 01:32:43.432                : en:Chapter 21
  101. 01:36:12.141                : en:Chapter 22
  102.  
  103.  
View raw paste Reply