Author: Not specified Language: text
Description: No description (v2) Timestamp: 2013-05-27 07:39:16 +0000
View raw paste Parent paste by: Up.(2009).BluRay.108... Reply
  1. General
  2.  
  3. Complete name                            : Up.(2009).BluRay.1080p.x264.Dual-Audio-by.Rosum.mkv
  4. Format                                   : Matroska
  5. Format version                           : Version 4 / Version 2
  6. File size                                : 7.56 GiB
  7. Duration                                 : 1h 36mn
  8. Overall bit rate                         : 11.3 Mbps
  9. Movie name                               : Up { 2009 } - Release for "rosum-clips.blogspot.com"
  10. Encoded date                             : UTC 2013-04-11 02:45:11
  11. Writing application                      : mkvmerge v6.1.0 ('Old Devil') built on Mar  2 2013 14:32:37
  12. Writing library                          : libebml v1.3.0 + libmatroska v1.4.0
  13.  
  14. Video
  15. ID                                       : 1
  16. Format                                   : AVC
  17. Format/Info                              : Advanced Video Codec
  18. Format profile                           : High@L4.1
  19. Format settings, CABAC                   : Yes
  20. Format settings, ReFrames                : 4 frames
  21. Codec ID                                 : V_MPEG4/ISO/AVC
  22. Duration                                 : 1h 36mn
  23. Bit rate                                 : 9 088 Kbps
  24. Width                                    : 1 920 pixels
  25. Height                                   : 1 080 pixels
  26. Display aspect ratio                     : 16:9
  27. Frame rate mode                          : Constant
  28. Frame rate                               : 23.976 fps
  29. Color space                              : YUV
  30. Chroma subsampling                       : 4:2:0
  31. Bit depth                                : 8 bits
  32. Scan type                                : Progressive
  33. Bits/(Pixel*Frame)                       : 0.183
  34. Stream size                              : 5.96 GiB (79%)
  35. Title                                    : Exclusive Release "Rosum" www.7asryat.com
  36. Writing library                          : x264 core 68 r1179M 96e2229
  37. Encoding settings                        : cabac=1 / ref=4 / deblock=1:-1:-1 / analyse=0x3:0x133 / me=umh / subme=9 / psy_rd=1.0:0.1 / mixed_ref=1 / me_range=48 / chroma_me=1 / trellis=2 / 8x8dct=1 / cqm=0 / deadzone=21,11 / chroma_qp_offset=-3 / threads=12 / nr=0 / decimate=1 / mbaff=0 / bframes=6 / b_pyramid=1 / b_adapt=2 / b_bias=0 / direct=1 / wpredb=1 / keyint=250 / keyint_min=25 / scenecut=40 / rc=2pass / bitrate=9088 / ratetol=1.0 / qcomp=0.60 / qpmin=10 / qpmax=51 / qpstep=4 / cplxblur=20.0 / qblur=0.5 / vbv_maxrate=50000 / vbv_bufsize=50000 / ip_ratio=1.40 / pb_ratio=1.30 / aq=1:0.90
  38. Language                                 : English
  39. Default                                  : No
  40. Forced                                   : No
  41.  
  42. Audio #1
  43. ID                                       : 2
  44. Format                                   : AC-3
  45. Format/Info                              : Audio Coding 3
  46. Mode extension                           : CM (complete main)
  47. Format settings, Endianness              : Big
  48. Codec ID                                 : A_AC3
  49. Duration                                 : 1h 36mn
  50. Bit rate mode                            : Constant
  51. Bit rate                                 : 640 Kbps
  52. Channel(s)                               : 6 channels
  53. Channel positions                        : Front: L C R, Side: L R, LFE
  54. Sampling rate                            : 48.0 KHz
  55. Bit depth                                : 16 bits
  56. Compression mode                         : Lossy
  57. Stream size                              : 440 MiB (6%)
  58. Title                                    : Arabic, Original BluRay, AC3, 5.1 ch , 640 kbps, 48.0 KHz
  59. Language                                 : Arabic
  60. Default                                  : Yes
  61. Forced                                   : No
  62.  
  63. Audio #2
  64. ID                                       : 3
  65. Format                                   : DTS
  66. Format/Info                              : Digital Theater Systems
  67. Format profile                           : ES
  68. Mode                                     : 16
  69. Format settings, Endianness              : Big
  70. Codec ID                                 : A_DTS
  71. Duration                                 : 1h 36mn
  72. Bit rate mode                            : Constant
  73. Bit rate                                 : 1 509 Kbps
  74. Channel(s)                               : 6 channels
  75. Channel positions                        : Front: L C R, Side: L R, LFE
  76. Sampling rate                            : 48.0 KHz
  77. Bit depth                                : 24 bits
  78. Compression mode                         : Lossy
  79. Stream size                              : 1.01 GiB (13%)
  80. Title                                    : English Master, Original BluRay, DTS, 5.1 ch , 1509 Kbps, 48.0 KHz
  81. Language                                 : English
  82. Default                                  : No
  83. Forced                                   : No
  84.  
  85. Text #1
  86. ID                                       : 4
  87. Format                                   : VobSub
  88. Muxing mode                              : zlib
  89. Codec ID                                 : S_VOBSUB

This paste is large and only partially shown.
View full paste

View raw paste Parent paste by: Up.(2009).BluRay.108... Reply