Author: Not specified Language: text
Description: Not specified Timestamp: 2019-09-02 06:21:18 +0000
View raw paste Child paste by: Not specified Reply
  1. General
  2. Unique ID                   : 59375187817801614380864039775430632301 (0x2CAB3EC68DCC34B89ECFEF316389E36D)
  3. Complete name               : F:\ddl\John.Wick.Chapter.3.Parabellum.2019.1440p.UHD.BluRay.x265.HDR.DD+5.1-Pahe.in.mkv
  4. Format                      : Matroska
  5. Format version              : Version 4
  6. File size                   : 2.99 GiB
  7. Duration                    : 2 h 10 min
  8. Overall bit rate            : 3 270 kb/s
  9. Movie name                  : John Wick: Chapter 3 - Parabellum 4K Source
  10. Encoded date                : UTC 2019-09-02 06:01:48
  11. Writing application         : mkvmerge v29.0.0 ('Like It Or Not') 64-bit
  12. Writing library             : libebml v1.3.6 + libmatroska v1.4.9
  13. Cover                       : Yes
  14. Attachments                 : cover.jpg
  15. Encoded by                  : Pahe.in™ Team
  16.  
  17. Video
  18. ID                          : 1
  19. Format                      : HEVC
  20. Format/Info                 : High Efficiency Video Coding
  21. Commercial name             : HDR10
  22. Format profile              : Main 10@L5.1@High
  23. Codec ID                    : V_MPEGH/ISO/HEVC
  24. Duration                    : 2 h 10 min
  25. Bit rate                    : 2 813 kb/s
  26. Width                       : 2 560 pixels
  27. Height                      : 1 066 pixels
  28. Display aspect ratio        : 2.40:1
  29. Frame rate mode             : Constant
  30. Frame rate                  : 23.976 (24000/1001) FPS
  31. Color space                 : YUV
  32. Chroma subsampling          : 4:2:0
  33. Bit depth                   : 10 bits
  34. Bits/(Pixel*Frame)          : 0.043
  35. Stream size                 : 2.57 GiB (86%)
  36. Writing library             : x265 3.1_RC1+3-3bdf06e3c628:[Windows][MSVC 1921][64 bit] 10bit
  37. Default                     : Yes
  38. Forced                      : No
  39. Color range                 : Limited
  40. Color primaries             : BT.2020
  41. Transfer characteristics    : PQ
  42. Matrix coefficients         : BT.2020 non-constant
  43. Mastering display color pri : Display P3
  44. Mastering display luminance : min: 0.0001 cd/m2, max: 1000 cd/m2
  45. Maximum Content Light Level : 1000 cd/m2
  46. Maximum Frame-Average Light : 358 cd/m2
  47.  
  48. Audio
  49. ID                          : 3
  50. Format                      : E-AC-3 JOC
  51. Format/Info                 : Enhanced AC-3 with Joint Object Coding
  52. Commercial name             : Dolby Digital Plus with Dolby Atmos
  53. Codec ID                    : A_EAC3
  54. Duration                    : 2 h 10 min
  55. Bit rate mode               : Constant
  56. Bit rate                    : 448 kb/s
  57. Channel(s)                  : 6 channels
  58. Channel layout              : L R C LFE Ls Rs
  59. Sampling rate               : 48.0 kHz
  60. Frame rate                  : 31.250 FPS (1536 SPF)
  61. Compression mode            : Lossy
  62. Stream size                 : 419 MiB (14%)
  63. Language                    : English
  64. Service kind                : Complete Main
  65. Default                     : Yes
  66. Forced                      : No
  67. Complexity index            : 16
  68. Number of dynamic objects   : 15
  69. Bed channel count           : 1 channel
  70. Bed channel configuration   : LFE
  71.  
  72. Text
  73. ID                          : 2
  74. Format                      : PGS
  75. Muxing mode                 : zlib
  76. Codec ID                    : S_HDMV/PGS
  77. Codec ID/Info               : Picture based subtitle format used on BDs/HD-DVDs
  78. Duration                    : 1 h 59 min
  79. Bit rate                    : 17.0 kb/s
  80. Count of elements           : 1370
  81. Stream size                 : 14.6 MiB (0%)
  82. Language                    : English
  83. Default                     : Yes
  84. Forced                      : No
  85.  
  86. Menu
  87. 00:00:00.000                : en:Chapter 01
  88. 00:08:46.860                : en:Chapter 02
  89. 00:14:06.763                : en:Chapter 03
  90. 00:22:40.401                : en:Chapter 04
  91. 00:31:26.301                : en:Chapter 05
  92. 00:37:51.311                : en:Chapter 06
  93. 00:47:43.319                : en:Chapter 07
  94. 00:57:09.176                : en:Chapter 08
  95. 01:02:56.439                : en:Chapter 09
  96. 01:14:27.672                : en:Chapter 10
  97. 01:20:36.665                : en:Chapter 11
  98. 01:28:48.365                : en:Chapter 12
  99. 01:33:51.793                : en:Chapter 13
  100. 01:41:31.794                : en:Chapter 14
  101. 01:53:44.651                : en:Chapter 15
  102. 01:59:51.434                : en:Chapter 16
  103.  
  104.  
View raw paste Child paste by: Not specified Reply