Author: Not specified Language: text
Description: Not specified Timestamp: 2019-12-17 22:42:16 +0000
View raw paste Reply
  1. General
  2. Unique ID                   : 322613348853332078460077330501397769024 (0xF2B512269AEAD64C194B8367DA8DEB40)
  3. Complete name               : E:\Joker.2019.1080p.UHD.WEB-DL.x264.DD+5.1-Pahe.in.mkv
  4. Format                      : Matroska
  5. Format version              : Version 4 / Version 2
  6. File size                   : 3.03 GiB
  7. Duration                    : 2 h 1 min
  8. Overall bit rate            : 3 556 kb/s
  9. Movie name                  : Joker (2019) - Pahe.in
  10. Encoded date                : UTC 2019-12-17 17:58:24
  11. Writing application         : mkvmerge v24.0.0 ('Beyond The Pale') 64-bit
  12. Writing library             : libebml v1.3.6 + libmatroska v1.4.9
  13. Cover                       : Yes
  14. Attachments                 : cover.jpg
  15. Encoded by                  : Pahe.in™ Team
  16.  
  17. Video
  18. ID                          : 1
  19. Format                      : AVC
  20. Format/Info                 : Advanced Video Codec
  21. Format profile              : High@L4.1
  22. Format settings             : CABAC / 4 Ref Frames
  23. Format settings, CABAC      : Yes
  24. Format settings, ReFrames   : 4 frames
  25. Codec ID                    : V_MPEG4/ISO/AVC
  26. Duration                    : 2 h 1 min
  27. Bit rate                    : 3 171 kb/s
  28. Width                       : 1 920 pixels
  29. Height                      : 1 038 pixels
  30. Display aspect ratio        : 1.85:1
  31. Frame rate mode             : Constant
  32. Frame rate                  : 23.976 (24000/1001) FPS
  33. Color space                 : YUV
  34. Chroma subsampling          : 4:2:0
  35. Bit depth                   : 8 bits
  36. Scan type                   : Progressive
  37. Bits/(Pixel*Frame)          : 0.066
  38. Stream size                 : 2.70 GiB (89%)
  39. Writing library             : x264 core 155 r2901 7d0ff22
  40. Encoding settings           : cabac=1 / ref=4 / deblock=1:-3:-3 / analyse=0x3:0x133 / me=umh / subme=10 / psy=1 / psy_rd=1.00:0.15 / mixed_ref=1 / me_range=48 / chroma_me=1 / trellis=2 / 8x8dct=1 / cqm=0 / deadzone=21,11 / fast_pskip=0 / chroma_qp_offset=-3 / threads=18 / lookahead_threads=3 / sliced_threads=0 / nr=0 / decimate=0 / interlaced=0 / bluray_compat=0 / constrained_intra=0 / bframes=8 / b_pyramid=2 / b_adapt=2 / b_bias=0 / direct=3 / weightb=1 / open_gop=0 / weightp=2 / keyint=250 / keyint_min=23 / scenecut=40 / intra_refresh=0 / rc_lookahead=60 / rc=crf / mbtree=0 / crf=23.7 / qcomp=0.60 / qpmin=0 / qpmax=69 / qpstep=4 / vbv_maxrate=33500 / vbv_bufsize=30000 / crf_max=0.0 / nal_hrd=none / filler=0 / ip_ratio=1.30 / pb_ratio=1.20 / aq=3:0.80
  41. Default                     : Yes
  42. Forced                      : No
  43.  
  44. Audio
  45. ID                          : 2
  46. Format                      : E-AC-3
  47. Format/Info                 : Enhanced AC-3
  48. Commercial name             : Dolby Digital Plus
  49. Codec ID                    : A_EAC3
  50. Duration                    : 2 h 1 min
  51. Bit rate mode               : Constant
  52. Bit rate                    : 384 kb/s
  53. Channel(s)                  : 6 channels
  54. Channel layout              : L R C LFE Ls Rs
  55. Sampling rate               : 48.0 kHz
  56. Frame rate                  : 31.250 FPS (1536 SPF)
  57. Compression mode            : Lossy
  58. Stream size                 : 335 MiB (11%)
  59. Language                    : English
  60. Service kind                : Complete Main
  61. Default                     : No
  62. Forced                      : No
  63.  
  64. Text
  65. ID                          : 3
  66. Format                      : UTF-8
  67. Codec ID                    : S_TEXT/UTF8
  68. Codec ID/Info               : UTF-8 Plain Text
  69. Duration                    : 1 h 54 min
  70. Bit rate                    : 75 b/s
  71. Count of elements           : 1636
  72. Stream size                 : 63.6 KiB (0%)
  73. Language                    : English
  74. Default                     : Yes
  75. Forced                      : No
  76.  
  77. Menu
  78. 00:00:00.000                : en:Studio Logo
  79. 00:00:14.000                : en:Makeup
  80. 00:01:31.000                : en:Broken Sign
  81. 00:03:42.000                : en:Therapy
  82. 00:07:41.000                : en:Bus
  83. 00:09:14.000                : en:Meeting Murray
  84. 00:15:20.000                : en:Protection
  85. 00:19:12.000                : en:Enter Sophie
  86. 00:21:00.000                : en:Bath
  87. 00:23:33.000                : en:Following
  88. 00:24:52.000                : en:Comedy Scout
  89. 00:26:00.000                : en:Invite
  90. 00:27:58.000                : en:Hospital Gig
  91. 00:29:22.000                : en:Subway Scuffle
  92. 00:34:09.000                : en:Fleeing
  93. 00:36:13.000                : en:First Kiss
  94. 00:36:45.000                : en:Punching Out
  95. 00:38:13.000                : en:Wayne Interview
  96. 00:39:55.000                : en:Negative Thoughts
  97. 00:42:13.000                : en:Open Mic
  98. 00:45:14.000                : en:Date
  99. 00:46:20.000                : en:Letter to Wayne
  100. 00:50:22.000                : en:Clipping
  101. 00:51:11.000                : en:Wayne Manor
  102. 00:55:15.000                : en:Emergency
  103. 00:56:18.000                : en:Detectives
  104. 00:58:31.000                : en:Arthur on T.V.
  105. 01:01:00.000                : en:Protest Coverage
  106. 01:02:17.000                : en:Meeting Wayne
  107. 01:07:10.000                : en:Invitation

This paste is large and only partially shown.
View full paste

View raw paste Reply