Author: Not specified Language: text
Description: Not specified Timestamp: 2019-09-16 14:11:23 +0000
View raw paste Child paste by: Not specified Reply
  1. General
  2. Unique ID                   : 95596494561786137794718779979970025890 (0x47EB3713C6846FB7179391FEEB8E99A2)
  3. Complete name               : E:\Childs.Play.2019.1080p.BluRay.x264.DD5.1-Pahe.in.mkv
  4. Format                      : Matroska
  5. Format version              : Version 4 / Version 2
  6. File size                   : 2.18 GiB
  7. Duration                    : 1 h 30 min
  8. Overall bit rate            : 3 463 kb/s
  9. Movie name                  : Child's Play (2019)
  10. Encoded date                : UTC 2019-09-16 09:15:34
  11. Writing application         : mkvmerge v24.0.0 ('Beyond The Pale') 64-bit
  12. Writing library             : libebml v1.3.6 + libmatroska v1.4.9
  13. Cover                       : Yes
  14. Attachments                 : cover.jpg
  15. Encoded by                  : Pahe.in™ Team
  16.  
  17. Video
  18. ID                          : 1
  19. Format                      : AVC
  20. Format/Info                 : Advanced Video Codec
  21. Format profile              : High@L4.1
  22. Format settings             : CABAC / 5 Ref Frames
  23. Format settings, CABAC      : Yes
  24. Format settings, ReFrames   : 5 frames
  25. Codec ID                    : V_MPEG4/ISO/AVC
  26. Duration                    : 1 h 30 min
  27. Bit rate                    : 3 063 kb/s
  28. Width                       : 1 920 pixels
  29. Height                      : 808 pixels
  30. Display aspect ratio        : 2.40:1
  31. Frame rate mode             : Constant
  32. Frame rate                  : 23.976 (24000/1001) FPS
  33. Color space                 : YUV
  34. Chroma subsampling          : 4:2:0
  35. Bit depth                   : 8 bits
  36. Scan type                   : Progressive
  37. Bits/(Pixel*Frame)          : 0.082
  38. Stream size                 : 1.93 GiB (88%)
  39. Writing library             : x264 core 155 r2901 7d0ff22
  40. Encoding settings           : cabac=1 / ref=5 / deblock=1:-3:-3 / analyse=0x3:0x133 / me=umh / subme=10 / psy=1 / psy_rd=1.00:0.15 / mixed_ref=1 / me_range=48 / chroma_me=1 / trellis=2 / 8x8dct=1 / cqm=0 / deadzone=21,11 / fast_pskip=0 / chroma_qp_offset=-3 / threads=18 / lookahead_threads=3 / sliced_threads=0 / nr=0 / decimate=0 / interlaced=0 / bluray_compat=0 / constrained_intra=0 / bframes=8 / b_pyramid=2 / b_adapt=2 / b_bias=0 / direct=3 / weightb=1 / open_gop=0 / weightp=2 / keyint=250 / keyint_min=23 / scenecut=40 / intra_refresh=0 / rc_lookahead=60 / rc=crf / mbtree=0 / crf=22.1 / qcomp=0.60 / qpmin=0 / qpmax=69 / qpstep=4 / vbv_maxrate=33500 / vbv_bufsize=30000 / crf_max=0.0 / nal_hrd=none / filler=0 / ip_ratio=1.30 / pb_ratio=1.20 / aq=3:0.80
  41. Default                     : Yes
  42. Forced                      : No
  43.  
  44. Audio
  45. ID                          : 2
  46. Format                      : AC-3
  47. Format/Info                 : Audio Coding 3
  48. Commercial name             : Dolby Digital
  49. Codec ID                    : A_AC3
  50. Duration                    : 1 h 30 min
  51. Bit rate mode               : Constant
  52. Bit rate                    : 384 kb/s
  53. Channel(s)                  : 6 channels
  54. Channel layout              : L R C LFE Ls Rs
  55. Sampling rate               : 48.0 kHz
  56. Frame rate                  : 31.250 FPS (1536 SPF)
  57. Bit depth                   : 16 bits
  58. Compression mode            : Lossy
  59. Stream size                 : 247 MiB (11%)
  60. Language                    : English
  61. Service kind                : Complete Main
  62. Default                     : No
  63. Forced                      : No
  64.  
  65. Text #1
  66. ID                          : 3
  67. Format                      : PGS
  68. Muxing mode                 : zlib
  69. Codec ID                    : S_HDMV/PGS
  70. Codec ID/Info               : Picture based subtitle format used on BDs/HD-DVDs
  71. Duration                    : 24 s 66 ms
  72. Bit rate                    : 28.7 kb/s
  73. Count of elements           : 16
  74. Stream size                 : 84.3 KiB (0%)
  75. Language                    : English
  76. Default                     : No
  77. Forced                      : Yes
  78.  
  79. Text #2
  80. ID                          : 4
  81. Format                      : PGS
  82. Muxing mode                 : zlib
  83. Codec ID                    : S_HDMV/PGS
  84. Codec ID/Info               : Picture based subtitle format used on BDs/HD-DVDs
  85. Duration                    : 1 h 29 min
  86. Bit rate                    : 43.1 kb/s
  87. Count of elements           : 3118
  88. Stream size                 : 27.5 MiB (1%)
  89. Language                    : English
  90. Default                     : No
  91. Forced                      : No
  92.  
  93. Menu
  94. 00:00:00.000                : en:Chapter 01
  95. 00:05:12.353                : en:Chapter 02
  96. 00:09:48.296                : en:Chapter 03
  97. 00:15:13.203                : en:Chapter 04
  98. 00:21:13.063                : en:Chapter 05
  99. 00:27:49.793                : en:Chapter 06
  100. 00:34:33.446                : en:Chapter 07
  101. 00:40:52.658                : en:Chapter 08
  102. 00:46:00.591                : en:Chapter 09
  103. 00:50:02.874                : en:Chapter 10
  104. 00:56:43.817                : en:Chapter 11
  105. 01:00:45.016                : en:Chapter 12
  106. 01:06:41.247                : en:Chapter 13
  107. 01:12:45.277                : en:Chapter 14
  108. 01:16:46.476                : en:Chapter 15
  109. 01:23:51.693                : en:Chapter 16
  110.  
  111.  
View raw paste Child paste by: Not specified Reply