Author: Not specified Language: text
Description: Not specified Timestamp: 2019-09-02 06:14:13 +0000
View raw paste Child paste by: Not specified Reply
  1. General
  2. Unique ID                   : 20914815648267624451788344616844757526 (0xFBC0C067A27A986145F6DC705CB8A16)
  3. Complete name               : E:\John.Wick.Chapter.3.Parabellum.2019.1080p.UHD.BluRay.x264.DD5.1-Pahe.in.mkv
  4. Format                      : Matroska
  5. Format version              : Version 4 / Version 2
  6. File size                   : 2.83 GiB
  7. Duration                    : 2 h 10 min
  8. Overall bit rate            : 3 093 kb/s
  9. Movie name                  : John Wick: Chapter 3 - Parabellum 4K Source
  10. Encoded date                : UTC 2019-09-02 03:56:13
  11. Writing application         : mkvmerge v35.0.0 ('All The Love In The World') 64-bit
  12. Writing library             : libebml v1.3.9 + libmatroska v1.5.2
  13. Cover                       : Yes
  14. Attachments                 : cover.jpg
  15. Encoded by                  : Pahe.in™ Team
  16.  
  17. Video
  18. ID                          : 1
  19. Format                      : AVC
  20. Format/Info                 : Advanced Video Codec
  21. Format profile              : High@L4.1
  22. Format settings             : CABAC / 5 Ref Frames
  23. Format settings, CABAC      : Yes
  24. Format settings, ReFrames   : 5 frames
  25. Codec ID                    : V_MPEG4/ISO/AVC
  26. Duration                    : 2 h 10 min
  27. Bit rate                    : 2 700 kb/s
  28. Width                       : 1 920 pixels
  29. Height                      : 800 pixels
  30. Display aspect ratio        : 2.40:1
  31. Frame rate mode             : Constant
  32. Frame rate                  : 23.976 (24000/1001) FPS
  33. Color space                 : YUV
  34. Chroma subsampling          : 4:2:0
  35. Bit depth                   : 8 bits
  36. Scan type                   : Progressive
  37. Bits/(Pixel*Frame)          : 0.073
  38. Stream size                 : 2.47 GiB (87%)
  39. Writing library             : x264 core 157 r2969 d4099dd
  40. Encoding settings           : cabac=1 / ref=5 / deblock=1:-3:-3 / analyse=0x3:0x133 / me=umh / subme=10 / psy=1 / psy_rd=1.00:0.15 / mixed_ref=1 / me_range=48 / chroma_me=1 / trellis=2 / 8x8dct=1 / cqm=0 / deadzone=21,11 / fast_pskip=0 / chroma_qp_offset=-3 / threads=18 / lookahead_threads=3 / sliced_threads=0 / nr=0 / decimate=0 / interlaced=0 / bluray_compat=0 / constrained_intra=0 / bframes=8 / b_pyramid=2 / b_adapt=2 / b_bias=0 / direct=3 / weightb=1 / open_gop=0 / weightp=2 / keyint=250 / keyint_min=23 / scenecut=40 / intra_refresh=0 / rc_lookahead=60 / rc=crf / mbtree=0 / crf=24.3 / qcomp=0.60 / qpmin=0 / qpmax=69 / qpstep=4 / vbv_maxrate=35000 / vbv_bufsize=29500 / crf_max=0.0 / nal_hrd=none / filler=0 / ip_ratio=1.30 / pb_ratio=1.20 / aq=3:0.70
  41. Default                     : Yes
  42. Forced                      : No
  43. Color range                 : Limited
  44. Matrix coefficients         : BT.709
  45.  
  46. Audio
  47. ID                          : 2
  48. Format                      : AC-3
  49. Format/Info                 : Audio Coding 3
  50. Commercial name             : Dolby Digital
  51. Codec ID                    : A_AC3
  52. Duration                    : 2 h 10 min
  53. Bit rate mode               : Constant
  54. Bit rate                    : 384 kb/s
  55. Channel(s)                  : 6 channels
  56. Channel layout              : L R C LFE Ls Rs
  57. Sampling rate               : 48.0 kHz
  58. Frame rate                  : 31.250 FPS (1536 SPF)
  59. Bit depth                   : 16 bits
  60. Compression mode            : Lossy
  61. Stream size                 : 359 MiB (12%)
  62. Title                       : Pahe.in dolby audio
  63. Language                    : English
  64. Service kind                : Complete Main
  65. Default                     : No
  66. Forced                      : No
  67.  
  68. Text #1
  69. ID                          : 3
  70. Format                      : PGS
  71. Muxing mode                 : zlib
  72. Codec ID                    : S_HDMV/PGS
  73. Codec ID/Info               : Picture based subtitle format used on BDs/HD-DVDs
  74. Duration                    : 1 h 59 min
  75. Bit rate                    : 17.0 kb/s
  76. Count of elements           : 1370
  77. Stream size                 : 14.6 MiB (1%)
  78. Language                    : English
  79. Default                     : Yes
  80. Forced                      : No
  81.  
  82. Text #2
  83. ID                          : 4
  84. Format                      : UTF-8
  85. Codec ID                    : S_TEXT/UTF8
  86. Codec ID/Info               : UTF-8 Plain Text
  87. Duration                    : 2 h 1 min
  88. Bit rate                    : 25 b/s
  89. Count of elements           : 799
  90. Stream size                 : 22.4 KiB (0%)
  91. Language                    : English
  92. Default                     : No
  93. Forced                      : No
  94.  
  95. Text #3
  96. ID                          : 5
  97. Format                      : UTF-8
  98. Codec ID                    : S_TEXT/UTF8
  99. Codec ID/Info               : UTF-8 Plain Text
  100. Duration                    : 2 h 2 min
  101. Bit rate                    : 25 b/s
  102. Count of elements           : 791
  103. Stream size                 : 22.6 KiB (0%)
  104. Language                    : Indonesian
  105. Default                     : No
  106. Forced                      : No
  107.  
  108. Menu
  109. 00:00:00.000                : en:Chapter 01
  110. 00:08:46.860                : en:Chapter 02
  111. 00:14:06.763                : en:Chapter 03
  112. 00:22:40.401                : en:Chapter 04
  113. 00:31:26.301                : en:Chapter 05

This paste is large and only partially shown.
View full paste

View raw paste Child paste by: Not specified Reply