Author: Not specified Language: text
Description: Not specified Timestamp: 2018-03-10 10:13:34 +0000
View raw paste Reply
  1. General
  2. Unique ID                   : 176362164406536400908120169881993425420 (0x84AE1E0A91508DFB9BCB6B96919B320C)
  3. Complete name               : A:\Moh Dayat\Raising Hope S02 1080p WEB-DL DD+ 5.1 x264-TrollHD\Raising Hope S02E01 1080p WEB-DL DD+ 5.1 x264-TrollHD.mkv
  4. Format                      : Matroska
  5. Format version              : Version 4 / Version 2
  6. File size                   : 2.19 GiB
  7. Duration                    : 21 min 43 s
  8. Overall bit rate mode       : Variable
  9. Overall bit rate            : 14.4 Mb/s
  10. Movie name                  : Raising Hope S02E01
  11. Encoded date                : UTC 2016-08-29 01:52:51
  12. Writing application         : mkvmerge v8.3.0 ('Over the Horizon') 64bit
  13. Writing library             : libebml v1.3.1 + libmatroska v1.4.2
  14.  
  15. Video
  16. ID                          : 1
  17. Format                      : AVC
  18. Format/Info                 : Advanced Video Codec
  19. Format profile              : High@L4
  20. Format settings, CABAC      : Yes
  21. Format settings, RefFrames  : 4 frames
  22. Codec ID                    : V_MPEG4/ISO/AVC
  23. Duration                    : 21 min 43 s
  24. Bit rate mode               : Variable
  25. Bit rate                    : 13.8 Mb/s
  26. Maximum bit rate            : 15.0 Mb/s
  27. Width                       : 1 920 pixels
  28. Height                      : 1 080 pixels
  29. Display aspect ratio        : 16:9
  30. Frame rate mode             : Constant
  31. Frame rate                  : 23.976 (24000/1001) FPS
  32. Color space                 : YUV
  33. Chroma subsampling          : 4:2:0
  34. Bit depth                   : 8 bits
  35. Scan type                   : Progressive
  36. Bits/(Pixel*Frame)          : 0.277
  37. Stream size                 : 2.09 GiB (96%)
  38. Title                       : Raising Hope S02E01
  39. Writing library             : x264 core 148 r2623 d5b2374
  40. Encoding settings           : cabac=1 / ref=4 / deblock=1:-1:-1 / analyse=0x3:0x133 / me=umh / subme=9 / psy=1 / psy_rd=1.00:0.15 / mixed_ref=1 / me_range=24 / chroma_me=1 / trellis=2 / 8x8dct=1 / cqm=0 / deadzone=21,11 / fast_pskip=1 / chroma_qp_offset=-3 / threads=34 / lookahead_threads=5 / sliced_threads=0 / nr=150 / decimate=1 / interlaced=0 / bluray_compat=0 / constrained_intra=0 / bframes=8 / b_pyramid=2 / b_adapt=2 / b_bias=0 / direct=3 / weightb=1 / open_gop=0 / weightp=2 / keyint=120 / keyint_min=61 / scenecut=0 / intra_refresh=0 / rc_lookahead=120 / rc=crf / mbtree=1 / crf=18.0 / qcomp=0.60 / qpmin=0 / qpmax=69 / qpstep=4 / vbv_maxrate=15000 / vbv_bufsize=31250 / crf_max=0.0 / nal_hrd=vbr / filler=0 / ip_ratio=1.40 / aq=3:1.00
  41. Default                     : Yes
  42. Forced                      : No
  43. Color range                 : Limited
  44. Color primaries             : BT.709
  45. Transfer characteristics    : BT.709
  46. Matrix coefficients         : BT.709
  47.  
  48. Audio
  49. ID                          : 2
  50. Format                      : E-AC-3
  51. Format/Info                 : Enhanced Audio Coding 3
  52. Format settings, Endianness : Big
  53. Codec ID                    : A_EAC3
  54. Duration                    : 21 min 43 s
  55. Bit rate mode               : Constant
  56. Bit rate                    : 640 kb/s
  57. Channel(s)                  : 6 channels
  58. Channel positions           : Front: L C R, Side: L R, LFE
  59. Sampling rate               : 48.0 kHz
  60. Frame rate                  : 187.500 FPS (256 SPF)
  61. Compression mode            : Lossy
  62. Stream size                 : 99.5 MiB (4%)
  63. Title                       : English
  64. Language                    : English
  65. Service kind                : Complete Main
  66. Default                     : Yes
  67. Forced                      : No
  68.  
  69. Text
  70. ID                          : 3
  71. Format                      : UTF-8
  72. Codec ID                    : S_TEXT/UTF8
  73. Codec ID/Info               : UTF-8 Plain Text
  74. Duration                    : 21 min 32 s
  75. Bit rate                    : 104 b/s
  76. Count of elements           : 485
  77. Stream size                 : 16.4 KiB (0%)
  78. Title                       : English
  79. Language                    : English
  80. Default                     : No
  81. Forced                      : No
View raw paste Reply