Author: Not specified Language: text
Description: Not specified Timestamp: 2019-08-25 23:23:01 +0000
View raw paste Child paste by: Not specified Reply
  1. General
  2. Unique ID                   : 220827107313237272113470657716286686313 (0xA621C0FC5BFCC8BE51DF22A8E8348469)
  3. Complete name               : E:\Adit\The.Hunger.Games.Catching.Fire.2013.1080p.UHD.BluRay.x264.DD5.1-Pahe.in.mkv
  4. Format                      : Matroska
  5. Format version              : Version 4
  6. File size                   : 3.17 GiB
  7. Duration                    : 2 h 26 min
  8. Overall bit rate            : 3 099 kb/s
  9. Encoded date                : UTC 2019-08-23 11:36:58
  10. Writing application         : mkvmerge v29.0.0 ('Like It Or Not') 64-bit
  11. Writing library             : libebml v1.3.6 + libmatroska v1.4.9
  12. Cover                       : Yes
  13. Attachments                 : cover.jpg
  14. Encoded by                  : Pahe.in™ Team
  15.  
  16. Video
  17. ID                          : 1
  18. Format                      : AVC
  19. Format/Info                 : Advanced Video Codec
  20. Format profile              : High@L4.1
  21. Format settings             : CABAC / 5 Ref Frames
  22. Format settings, CABAC      : Yes
  23. Format settings, Reference  : 5 frames
  24. Codec ID                    : V_MPEG4/ISO/AVC
  25. Duration                    : 2 h 26 min
  26. Bit rate                    : 2 705 kb/s
  27. Width                       : 1 920 pixels
  28. Height                      : 800 pixels
  29. Display aspect ratio        : 2.40:1
  30. Frame rate mode             : Constant
  31. Frame rate                  : 23.976 (24000/1001) FPS
  32. Color space                 : YUV
  33. Chroma subsampling          : 4:2:0
  34. Bit depth                   : 8 bits
  35. Scan type                   : Progressive
  36. Bits/(Pixel*Frame)          : 0.073
  37. Stream size                 : 2.76 GiB (87%)
  38. Writing library             : x264 core 157 r2969 d4099dd
  39. Encoding settings           : cabac=1 / ref=5 / deblock=1:-3:-3 / analyse=0x3:0x133 / me=umh / subme=10 / psy=1 / psy_rd=1.00:0.15 / mixed_ref=1 / me_range=48 / chroma_me=1 / trellis=2 / 8x8dct=1 / cqm=0 / deadzone=21,11 / fast_pskip=0 / chroma_qp_offset=-3 / threads=18 / lookahead_threads=3 / sliced_threads=0 / nr=0 / decimate=0 / interlaced=0 / bluray_compat=0 / constrained_intra=0 / bframes=8 / b_pyramid=2 / b_adapt=2 / b_bias=0 / direct=3 / weightb=1 / open_gop=0 / weightp=2 / keyint=250 / keyint_min=23 / scenecut=40 / intra_refresh=0 / rc_lookahead=60 / rc=crf / mbtree=0 / crf=23.5 / qcomp=0.60 / qpmin=0 / qpmax=69 / qpstep=4 / vbv_maxrate=35000 / vbv_bufsize=29500 / crf_max=0.0 / nal_hrd=none / filler=0 / ip_ratio=1.30 / pb_ratio=1.20 / aq=3:0.80
  40. Default                     : Yes
  41. Forced                      : No
  42. Color range                 : Limited
  43. Color primaries             : BT.709
  44. Matrix coefficients         : BT.709
  45.  
  46. Audio
  47. ID                          : 2
  48. Format                      : AC-3
  49. Format/Info                 : Audio Coding 3
  50. Commercial name             : Dolby Digital
  51. Codec ID                    : A_AC3
  52. Duration                    : 2 h 26 min
  53. Bit rate mode               : Constant
  54. Bit rate                    : 384 kb/s
  55. Channel(s)                  : 6 channels
  56. Channel layout              : L R C LFE Ls Rs
  57. Sampling rate               : 48.0 kHz
  58. Frame rate                  : 31.250 FPS (1536 SPF)
  59. Bit depth                   : 16 bits
  60. Compression mode            : Lossy
  61. Stream size                 : 402 MiB (12%)
  62. Title                       : Pahe.in dolby audio
  63. Language                    : English
  64. Service kind                : Complete Main
  65. Default                     : No
  66. Forced                      : No
  67.  
  68. Text
  69. ID                          : 3
  70. Format                      : PGS
  71. Muxing mode                 : zlib
  72. Codec ID                    : S_HDMV/PGS
  73. Codec ID/Info               : Picture based subtitle format used on BDs/HD-DVDs
  74. Duration                    : 2 h 13 min
  75. Bit rate                    : 29.4 kb/s
  76. Count of elements           : 3078
  77. Stream size                 : 28.2 MiB (1%)
  78. Language                    : English
  79. Default                     : Yes
  80. Forced                      : No
  81.  
  82. Menu
  83. 00:00:00.000                : en:Chapter 1
  84. 00:11:23.892                : en:Chapter 2
  85. 00:16:47.256                : en:Chapter 3
  86. 00:25:37.286                : en:Chapter 4
  87. 00:35:50.857                : en:Chapter 5
  88. 00:44:21.784                : en:Chapter 6
  89. 00:52:12.129                : en:Chapter 7
  90. 01:01:10.584                : en:Chapter 8
  91. 01:08:11.421                : en:Chapter 9
  92. 01:16:47.937                : en:Chapter 10
  93. 01:22:38.871                : en:Chapter 11
  94. 01:29:20.939                : en:Chapter 12
  95. 01:40:43.120                : en:Chapter 13
  96. 01:50:46.974                : en:Chapter 14
  97. 02:02:46.192                : en:Chapter 15
  98. 02:09:58.165                : en:Chapter 16
  99.  
  100.  
View raw paste Child paste by: Not specified Reply