Author: Not specified Language: text
Description: (v2) Timestamp: 2017-12-29 18:31:37 +0000
View raw paste Parent paste by: Not specified Reply
  1. General
  2. Unique ID                   : 250366407778882799387411999522154774652 (0xBC5AD0F13CF563149F34C6AF5136807C)
  3. Complete name               : F:\Transformers.The.Last.Knight.2017.REMASTERED.1080p.BluRay.x264.DD5.1-Pahe.in.mkv
  4. Format                      : Matroska
  5. Format version              : Version 4 / Version 2
  6. File size                   : 4.09 GiB
  7. Duration                    : 2 h 34 min
  8. Overall bit rate            : 3 788 kb/s
  9. Movie name                  : Transformers: The Last Knight (2017)
  10. Encoded date                : UTC 2017-11-13 11:36:26
  11. Writing application         : mkvmerge v15.0.0 ('Duel with the Devil') 64-bit
  12. Writing library             : libebml v1.3.5 + libmatroska v1.4.5
  13. Cover                       : Yes
  14. Attachments                 : cover.jpg
  15. Encoder                     : Pahe.in (??????)?
  16.  
  17. Video
  18. ID                          : 1
  19. Format                      : AVC
  20. Format/Info                 : Advanced Video Codec
  21. Format profile              : High@L4.1
  22. Format settings             : CABAC / 4 Ref Frames
  23. Format settings, CABAC      : Yes
  24. Format settings, RefFrames  : 4 frames
  25. Codec ID                    : V_MPEG4/ISO/AVC
  26. Duration                    : 2 h 34 min
  27. Bit rate                    : 3 376 kb/s
  28. Width                       : 1 920 pixels
  29. Height                      : 1 008 pixels
  30. Display aspect ratio        : 1.905
  31. Frame rate mode             : Constant
  32. Frame rate                  : 23.976 (24000/1001) FPS
  33. Color space                 : YUV
  34. Chroma subsampling          : 4:2:0
  35. Bit depth                   : 8 bits
  36. Scan type                   : Progressive
  37. Bits/(Pixel*Frame)          : 0.073
  38. Stream size                 : 3.65 GiB (89%)
  39. Writing library             : x264 core 152 r2851 ba24899
  40. Encoding settings           : cabac=1 / ref=4 / deblock=1:-2:-2 / analyse=0x3:0x133 / me=umh / subme=11 / psy=1 / psy_rd=1.00:0.15 / mixed_ref=1 / me_range=48 / chroma_me=1 / trellis=2 / 8x8dct=1 / cqm=0 / deadzone=21,11 / fast_pskip=0 / chroma_qp_offset=-3 / threads=12 / lookahead_threads=2 / sliced_threads=0 / nr=0 / decimate=0 / interlaced=0 / bluray_compat=0 / constrained_intra=0 / bframes=8 / b_pyramid=2 / b_adapt=2 / b_bias=0 / direct=3 / weightb=1 / open_gop=0 / weightp=2 / keyint=250 / keyint_min=23 / scenecut=40 / intra_refresh=0 / rc_lookahead=60 / rc=crf / mbtree=0 / crf=26.5 / qcomp=0.60 / qpmin=0 / qpmax=69 / qpstep=4 / vbv_maxrate=35000 / vbv_bufsize=26500 / crf_max=0.0 / nal_hrd=none / filler=0 / ip_ratio=1.30 / pb_ratio=1.20 / aq=3:0.70 / zones=33803,33899,crf=24.5/43776,43898,crf=24.5/46233,46333,crf=24.5/46766,46824,crf=24.5/53499,53545,crf=24.5/53727,53914,crf=24.5/54038,54104,crf=24.5/55736,55870,crf=24.5/55736,55870,crf=23.5/56773,56925,crf=24.5/57545,57755,crf=24.5/63967,64105,crf=24.5/64521,64584,crf=24.5/68764,68985,crf=24.5/69690,69905,crf=24.5/71920,71960,crf=24.5/72126,72143,crf=24.5/73609,73732,crf=24.5/117020,117052,crf=24.5/134586,134636,crf=24.5/135324,135387,crf=24.5/141858,141898,crf=24.5/142499,142555,crf=24.5/145215,145446,crf=24.5/145793,145850,crf=24.5/159989,160024,crf=24.5/162105,162163,crf=24.5/194784,194836,crf=24.5/199224,199340,crf=24.5/206462,206508,crf=24.5/206902,207195,crf=24.5/207869,207942,crf=24.5/208222,208455,crf=24.5/208617,208790,crf=24.5/209667,210704,crf=24.5
  41. Default                     : Yes
  42. Forced                      : No
  43.  
  44. Audio
  45. ID                          : 2
  46. Format                      : AC-3
  47. Format/Info                 : Audio Coding 3
  48. Format settings, Endianness : Big
  49. Codec ID                    : A_AC3
  50. Duration                    : 2 h 34 min
  51. Bit rate mode               : Constant
  52. Bit rate                    : 384 kb/s
  53. Channel(s)                  : 6 channels
  54. Channel positions           : Front: L C R, Side: L R, LFE
  55. Sampling rate               : 48.0 kHz
  56. Frame rate                  : 31.250 FPS (1536 SPF)
  57. Bit depth                   : 16 bits
  58. Compression mode            : Lossy
  59. Delay relative to video     : 32 ms
  60. Stream size                 : 425 MiB (10%)
  61. Language                    : English
  62. Service kind                : Complete Main
  63. Default                     : No
  64. Forced                      : No
  65.  
  66. Text #1
  67. ID                          : 3
  68. Format                      : UTF-8
  69. Codec ID                    : S_TEXT/UTF8
  70. Codec ID/Info               : UTF-8 Plain Text
  71. Duration                    : 2 h 24 min
  72. Bit rate                    : 67 b/s
  73. Count of elements           : 2343
  74. Stream size                 : 71.7 KiB (0%)
  75. Language                    : English
  76. Default                     : No
  77. Forced                      : No
  78.  
  79. Text #2
  80. ID                          : 4
  81. Format                      : PGS
  82. Muxing mode                 : zlib
  83. Codec ID                    : S_HDMV/PGS
  84. Codec ID/Info               : Picture based subtitle format used on BDs/HD-DVDs
  85. Duration                    : 2 h 25 min
  86. Bit rate                    : 46.8 kb/s
  87. Count of elements           : 5240
  88. Stream size                 : 48.8 MiB (1%)
  89. Language                    : English

This paste is large and only partially shown.
View full paste

View raw paste Parent paste by: Not specified Reply