Author: Not specified Language: text
Description: Not specified Timestamp: 2018-06-02 08:06:27 +0000
View raw paste Reply
  1. General
  2. Unique ID                                : 0 (0x0)
  3. Complete name                            : The.Five.UK.S01E01.1080p.BluRay.x264-SHORTBREHD.mkv
  4. Format                                   : Matroska
  5. Format version                           : Version 4 / Version 2
  6. File size                                : 3.28 GiB
  7. Duration                                 : 44mn 26s
  8. Overall bit rate                         : 10.6 Mbps
  9. Encoded date                             : UTC 2010-02-22 21:41:29
  10. Writing application                      : no_variable_data
  11. Writing library                          : no_variable_data
  12.  
  13. Video
  14. ID                                       : 1
  15. Format                                   : AVC
  16. Format/Info                              : Advanced Video Codec
  17. Format profile                           : High@L4.1
  18. Format settings, CABAC                   : Yes
  19. Format settings, ReFrames                : 5 frames
  20. Codec ID                                 : V_MPEG4/ISO/AVC
  21. Duration                                 : 44mn 26s
  22. Bit rate                                 : 9 047 Kbps
  23. Width                                    : 1 920 pixels
  24. Height                                   : 816 pixels
  25. Display aspect ratio                     : 2.35:1
  26. Frame rate mode                          : Constant
  27. Frame rate                               : 25.000 fps
  28. Color space                              : YUV
  29. Chroma subsampling                       : 4:2:0
  30. Bit depth                                : 8 bits
  31. Scan type                                : Progressive
  32. Bits/(Pixel*Frame)                       : 0.231
  33. Stream size                              : 2.74 GiB (84%)
  34. Writing library                          : x264 core 148 r2692 64f4e24
  35. Encoding settings                        : cabac=1 / ref=5 / deblock=1:-3:-3 / analyse=0x3:0x113 / me=umh / subme=8 / psy=1 / psy_rd=1.00:0.00 / mixed_ref=1 / me_range=16 / chroma_me=1 / trellis=1 / 8x8dct=1 / cqm=0 / deadzone=21,11 / fast_pskip=1 / chroma_qp_offset=-2 / threads=24 / lookahead_threads=4 / sliced_threads=0 / nr=0 / decimate=1 / interlaced=0 / bluray_compat=0 / constrained_intra=0 / bframes=3 / b_pyramid=2 / b_adapt=2 / b_bias=0 / direct=3 / weightb=1 / open_gop=0 / weightp=2 / keyint=250 / keyint_min=25 / scenecut=40 / intra_refresh=0 / rc_lookahead=50 / rc=2pass / mbtree=1 / bitrate=9047 / ratetol=1.0 / qcomp=0.60 / qpmin=0 / qpmax=69 / qpstep=4 / cplxblur=20.0 / qblur=0.5 / ip_ratio=1.40 / aq=3:0.80
  36. Default                                  : Yes
  37. Forced                                   : No
  38. Statistics Tags Issue                    : no_variable_data 1970-01-01 00:00:00 / no_variable_data 2010-02-22 21:41:29
  39. FromStats_BitRate                        : 9046512
  40. FromStats_Duration                       : 00:44:26.400000000
  41. FromStats_FrameCount                     : 66660
  42. FromStats_StreamSize                     : 3015202494
  43.  
  44. Audio
  45. ID                                       : 2
  46. Format                                   : DTS
  47. Format/Info                              : Digital Theater Systems
  48. Mode                                     : 16
  49. Format settings, Endianness              : Big
  50. Codec ID                                 : A_DTS
  51. Duration                                 : 44mn 26s
  52. Bit rate mode                            : Constant
  53. Bit rate                                 : 1 509 Kbps
  54. Channel(s)                               : 6 channels
  55. Channel positions                        : Front: L C R, Side: L R, LFE
  56. Sampling rate                            : 48.0 KHz
  57. Frame rate                               : 93.750 fps (512 spf)
  58. Bit depth                                : 24 bits
  59. Compression mode                         : Lossy
  60. Stream size                              : 480 MiB (14%)
  61. Language                                 : English
  62. Default                                  : Yes
  63. Forced                                   : No
  64. Statistics Tags Issue                    : no_variable_data 1970-01-01 00:00:00 / no_variable_data 2010-02-22 21:41:29
  65. FromStats_BitRate                        : 1508999
  66. FromStats_Duration                       : 00:44:26.443000000
  67. FromStats_FrameCount                     : 249979
  68. FromStats_StreamSize                     : 502957748
  69.  
  70. Menu
  71. 00:00:00.000                             : en:00:00:00.000
  72. 00:07:19.600                             : en:00:07:19.600
  73. 00:16:08.080                             : en:00:16:08.080
  74. 00:22:31.720                             : en:00:22:31.720
  75. 00:33:12.000                             : en:00:33:12.000
  76. 00:43:07.040                             : en:00:43:07.040
View raw paste Reply