Author: Not specified Language: text
Description: Not specified Timestamp: 2013-06-13 12:18:24 +0000
View raw paste Reply
  1.  
  2. x264 [info]: frame I:1236  Avg QP:19.10  size: 87921
  3. x264 [info]: frame P:28665 Avg QP:20.80  size: 30354
  4. x264 [info]: frame B:118131 Avg QP:23.33  size:  8994
  5. x264 [info]: consecutive B-frames:  1.4%  1.2%  5.1% 11.1% 13.2% 59.4%  6.9%  1.7%
  6.  
  7. C:\Users\Phoenix92\Desktop\ha (1).mkv
  8. Format                                   : Matroska
  9. Format version                           : Version 4 / Version 2
  10. File size                                : 2.36 GiB
  11. Duration                                 : 1h 42mn
  12. Overall bit rate                         : 3 287 Kbps
  13. Encoded date                             : UTC 2013-06-13 11:55:35
  14. Writing application                      : mkvmerge v6.2.0 ('Promised Land') built on Apr 28 2013 12:22:01
  15. Writing library                          : libebml v1.3.0 + libmatroska v1.4.0
  16.  
  17. Video
  18. ID                                       : 1
  19. Format                                   : AVC
  20. Format/Info                              : Advanced Video Codec
  21. Format profile                           : High@L4.1
  22. Format settings, CABAC                   : Yes
  23. Format settings, ReFrames                : 9 frames
  24. Codec ID                                 : V_MPEG4/ISO/AVC
  25. Duration                                 : 1h 42mn
  26. Bit rate                                 : 2 581 Kbps
  27. Width                                    : 1 280 pixels
  28. Height                                   : 694 pixels
  29. Display aspect ratio                     : 1.85:1
  30. Frame rate mode                          : Constant
  31. Frame rate                               : 23.976 fps
  32. Color space                              : YUV
  33. Chroma subsampling                       : 4:2:0
  34. Bit depth                                : 8 bits
  35. Scan type                                : Progressive
  36. Bits/(Pixel*Frame)                       : 0.121
  37. Stream size                              : 1.86 GiB (79%)
  38. Writing library                          : x264 core 133 r2334 a3ac64b
  39. Encoding settings                        : cabac=1 / ref=9 / deblock=1:-3:-3 / analyse=0x3:0x113 / me=esa / subme=10 / psy=1 / psy_rd=1.05:0.00 / mixed_ref=1 / me_range=24 / chroma_me=1 / trellis=2 / 8x8dct=1 / cqm=0 / deadzone=21,11 / fast_pskip=0 / chroma_qp_offset=-2 / threads=12 / lookahead_threads=2 / sliced_threads=0 / nr=0 / decimate=0 / interlaced=0 / bluray_compat=0 / constrained_intra=0 / bframes=7 / b_pyramid=2 / b_adapt=2 / b_bias=0 / direct=3 / weightb=1 / open_gop=0 / weightp=2 / keyint=250 / keyint_min=23 / scenecut=40 / intra_refresh=0 / rc=crf / mbtree=0 / crf=20.0 / qcomp=0.60 / qpmin=0 / qpmax=69 / qpstep=4 / ip_ratio=1.40 / pb_ratio=1.30 / aq=1:0.80
  40. Default                                  : Yes
  41. Forced                                   : No
  42.  
  43. Audio
  44. ID                                       : 3
  45. Format                                   : AC-3
  46. Format/Info                              : Audio Coding 3
  47. Mode extension                           : CM (complete main)
  48. Format settings, Endianness              : Big
  49. Codec ID                                 : A_AC3
  50. Duration                                 : 1h 42mn
  51. Bit rate mode                            : Constant
  52. Bit rate                                 : 640 Kbps
  53. Channel(s)                               : 6 channels
  54. Channel positions                        : Front: L C R, Side: L R, LFE
  55. Sampling rate                            : 48.0 KHz
  56. Bit depth                                : 16 bits
  57. Compression mode                         : Lossy
  58. Stream size                              : 471 MiB (19%)
  59. Default                                  : Yes
  60. Forced                                   : No
  61.  
  62. Text
  63. ID                                       : 2
  64. Format                                   : UTF-8
  65. Codec ID                                 : S_TEXT/UTF8
  66. Codec ID/Info                            : UTF-8 Plain Text
  67. Title                                    : English
  68. Language                                 : English
  69. Default                                  : No
  70. Forced                                   : No
  71.  
  72. Menu
  73. 00:00:00.000                             : en:Chapter 00
  74. 00:03:47.060                             : en:Chapter 01
  75. 00:05:46.679                             : en:Chapter 02
  76. 00:08:49.278                             : en:Chapter 03
  77. 00:11:28.729                             : en:Chapter 04
  78. 00:13:43.239                             : en:Chapter 05
  79. 00:19:27.457                             : en:Chapter 06
  80. 00:25:08.173                             : en:Chapter 07
  81. 00:31:16.040                             : en:Chapter 08
  82. 00:35:56.654                             : en:Chapter 09
  83. 00:41:09.550                             : en:Chapter 10
  84. 00:51:22.662                             : en:Chapter 11
  85. 00:57:38.580                             : en:Chapter 12
  86. 01:03:27.637                             : en:Chapter 13
  87. 01:06:33.656                             : en:Chapter 14
  88. 01:13:43.836                             : en:Chapter 15
  89. 01:15:13.217                             : en:Chapter 16
  90. 01:19:27.053                             : en:Chapter 17

This paste is large and only partially shown.
View full paste

View raw paste Reply