Author: Not specified Language: text
Description: Not specified Timestamp: 2017-10-07 02:00:51 +0000
View raw paste Child paste by: Not specified Reply
  1. General
  2. Source                      : Spider.Man.Homecoming.2017.REMUX.BluRay.1080p.AVC.DTS-HD.MA5.1-iFT
  3. Format                      : Matroska
  4. Format version              : Version 4 / Version 2
  5. File size                   : 3.29 GiB
  6. Duration                    : 2 h 13 min
  7. Overall bit rate            : 3 533 kb/s
  8. Movie name                  : Spider-Man: Homecoming (2017)
  9. Encoded date                : UTC 2017-10-06 20:43:49
  10. Writing application         : mkvmerge v13.0.0 ('The Juggler') 64bit
  11. Writing library             : libebml v1.3.4 + libmatroska v1.4.5
  12. Cover                       : Yes
  13. Attachments                 : cover.jpg
  14. Encoder                     : Pahe.in™ Team
  15.  
  16. Video
  17. ID                          : 1
  18. Format                      : AVC
  19. Format/Info                 : Advanced Video Codec
  20. Format profile              : High@L4.1
  21. Format settings, CABAC      : Yes
  22. Format settings, RefFrames  : 5 frames
  23. Codec ID                    : V_MPEG4/ISO/AVC
  24. Duration                    : 2 h 13 min
  25. Bit rate                    : 3 127 kb/s
  26. Width                       : 1 920 pixels
  27. Height                      : 804 pixels
  28. Display aspect ratio        : 2.40:1
  29. Frame rate mode             : Constant
  30. Frame rate                  : 23.976 (24000/1001) FPS
  31. Color space                 : YUV
  32. Chroma subsampling          : 4:2:0
  33. Bit depth                   : 8 bits
  34. Scan type                   : Progressive
  35. Bits/(Pixel*Frame)          : 0.084
  36. Stream size                 : 2.92 GiB (89%)
  37. Title                       : https://pahe.in
  38. Writing library             : x264 core 152 r2851 ba24899
  39. Encoding settings           : cabac=1 / ref=5 / deblock=1:-3:-3 / analyse=0x3:0x133 / me=umh / subme=11 / psy=1 / psy_rd=1.00:0.15 / mixed_ref=1 / me_range=32 / chroma_me=1 / trellis=2 / 8x8dct=1 / cqm=0 / deadzone=21,11 / fast_pskip=0 / chroma_qp_offset=-3 / threads=25 / lookahead_threads=4 / sliced_threads=0 / nr=0 / decimate=0 / interlaced=0 / bluray_compat=0 / constrained_intra=0 / bframes=8 / b_pyramid=2 / b_adapt=2 / b_bias=0 / direct=3 / weightb=1 / open_gop=0 / weightp=2 / keyint=250 / keyint_min=23 / scenecut=40 / intra_refresh=0 / rc_lookahead=60 / rc=crf / mbtree=0 / crf=22.6 / qcomp=0.70 / qpmin=0 / qpmax=69 / qpstep=4 / vbv_maxrate=47500 / vbv_bufsize=50000 / crf_max=0.0 / nal_hrd=none / filler=0 / ip_ratio=1.30 / pb_ratio=1.20 / aq=1:0.80
  40. Default                     : Yes
  41. Forced                      : No
  42.  
  43. Audio
  44. ID                          : 2
  45. Format                      : AC-3
  46. Format/Info                 : Audio Coding 3
  47. Format settings, Endianness : Big
  48. Codec ID                    : A_AC3
  49. Duration                    : 2 h 13 min
  50. Bit rate mode               : Constant
  51. Bit rate                    : 384 kb/s
  52. Channel(s)                  : 6 channels
  53. Channel positions           : Front: L C R, Side: L R, LFE
  54. Sampling rate               : 48.0 kHz
  55. Frame rate                  : 31.250 FPS (1536 SPF)
  56. Bit depth                   : 16 bits
  57. Compression mode            : Lossy
  58. Stream size                 : 367 MiB (11%)
  59. Language                    : English
  60. Service kind                : Complete Main
  61. Default                     : No
  62. Forced                      : No
  63.  
  64. Text
  65. ID                          : 3
  66. Format                      : PGS
  67. Muxing mode                 : zlib
  68. Codec ID                    : S_HDMV/PGS
  69. Codec ID/Info               : Picture based subtitle format used on BDs/HD-DVDs
  70. Duration                    : 2 h 12 min
  71. Bit rate                    : 38.6 kb/s
  72. Count of elements           : 3555
  73. Stream size                 : 36.5 MiB (1%)
  74. Language                    : English
  75. Default                     : Yes
  76. Forced                      : No
  77.  
  78. Menu
  79. 00:00:00.000                : en:00:00:00.000
  80. 00:00:48.799                : en:00:00:48.799
  81. 00:01:28.046                : en:00:01:28.046
  82. 00:02:03.165                : en:00:02:03.165
  83. 00:02:26.646                : en:00:02:26.646
  84. 00:05:35.001                : en:00:05:35.001
  85. 00:06:03.446                : en:00:06:03.446
  86. 00:06:29.306                : en:00:06:29.306
  87. 00:08:58.121                : en:00:08:58.121
  88. 00:10:57.699                : en:00:10:57.699
  89. 00:12:25.870                : en:00:12:25.870
  90. 00:13:49.120                : en:00:13:49.120
  91. 00:17:48.109                : en:00:17:48.109
  92. 00:20:50.749                : en:00:20:50.749
  93. 00:21:22.072                : en:00:21:22.072
  94. 00:22:00.986                : en:00:22:00.986
  95. 00:24:23.587                : en:00:24:23.587
  96. 00:25:52.134                : en:00:25:52.134
  97. 00:26:44.520                : en:00:26:44.520
  98. 00:28:12.941                : en:00:28:12.941
  99. 00:29:11.708                : en:00:29:11.708
  100. 00:32:25.277                : en:00:32:25.277
  101. 00:33:03.231                : en:00:33:03.231
  102. 00:34:14.344                : en:00:34:14.344
  103. 00:34:35.198                : en:00:34:35.198
  104. 00:37:10.895                : en:00:37:10.895
  105. 00:38:13.833                : en:00:38:13.833
  106. 00:40:53.242                : en:00:40:53.242
  107. 00:41:52.218                : en:00:41:52.218

This paste is large and only partially shown.
View full paste

View raw paste Child paste by: Not specified Reply