Author: Not specified Language: text
Description: Not specified Timestamp: 2013-05-19 16:31:04 +0000
View raw paste Reply
  1. [00:21:46]      STARTING SESSION
  2. [00:21:46]      Waiting for local client...
  3. [00:21:46]      ENCODER STARTED
  4. [00:21:46]      STREAMER STARTED
  5. [00:21:46]      ffmpeg version N-49947-g9f16cb9 Copyright (c) 2000-2013 the FFmpeg developers
  6. [00:21:46]        built on Mar 15 2013 11:14:26 with gcc 4.6.2 (GCC)
  7. [00:21:46]        configuration: --pkg-config=pkg-config --prefix=/home/td/software/packages/win32 --enable-memalign-hack --arch=x86 --target-os=mingw32 --cross-prefix=i686-w64-mingw32- --enable-libx264 --enable-libmp3lame --enable-gpl --disable-w32threads --enable-runtime-cpudetect
  8. [00:21:46]        libavutil      52. 17.101 / 52. 17.101
  9. [00:21:46]        libavcodec     54. 91.103 / 54. 91.103
  10. [00:21:46]        libavformat    54. 63.100 / 54. 63.100
  11. [00:21:46]        libavdevice    54.  3.103 / 54.  3.103
  12. [00:21:46]        libavfilter     3. 37.101 /  3. 37.101
  13. [00:21:46]        libswscale      2.  2.100 /  2.  2.100
  14. [00:21:46]        libswresample   0. 17.102 /  0. 17.102
  15. [00:21:46]        libpostproc    52.  2.100 / 52.  2.100
  16. [00:21:46]      ffmpeg version N-49947-g9f16cb9 Copyright (c) 2000-2013 the FFmpeg developers
  17. [00:21:46]        built on Mar 15 2013 11:14:26 with gcc 4.6.2 (GCC)
  18. [00:21:46]        configuration: --pkg-config=pkg-config --prefix=/home/td/software/packages/win32 --enable-memalign-hack --arch=x86 --target-os=mingw32 --cross-prefix=i686-w64-mingw32- --enable-libx264 --enable-libmp3lame --enable-gpl --disable-w32threads --enable-runtime-cpudetect
  19. [00:21:46]        libavutil      52. 17.101 / 52. 17.101
  20. [00:21:46]        libavcodec     54. 91.103 / 54. 91.103
  21. [00:21:46]        libavformat    54. 63.100 / 54. 63.100
  22. [00:21:46]        libavdevice    54.  3.103 / 54.  3.103
  23. [00:21:46]        libavfilter     3. 37.101 /  3. 37.101
  24. [00:21:46]        libswscale      2.  2.100 /  2.  2.100
  25. [00:21:46]        libswresample   0. 17.102 /  0. 17.102
  26. [00:21:46]        libpostproc    52.  2.100 / 52.  2.100
  27. [00:21:46]      [dshow @ 0301bba0] Estimating duration from bitrate, this may be inaccurate
  28. [00:21:46]      Input #0, dshow, from 'video=FFsource':
  29. [00:21:46]        Duration: N/A, start: 20513.422000, bitrate: N/A
  30. [00:21:46]          Stream #0:0: Video: rawvideo (NV12 / 0x3231564E), nv12, 1366x720, 60 tbr, 10000k tbn, 60 tbc
  31. [00:21:46]      [dshow @ 0161dac0] Estimating duration from bitrate, this may be inaccurate
  32. [00:21:46]      Guessed Channel Layout for  Input Stream #1.0 : stereo
  33. [00:21:46]      Input #1, dshow, from 'audio=DirectSound Capture Device':
  34. [00:21:46]        Duration: N/A, start: 20513.460000, bitrate: 1536 kb/s
  35. [00:21:46]          Stream #1:0: Audio: pcm_s16le, 48000 Hz, stereo, s16, 1536 kb/s
  36. [00:21:46]      [dshow @ 0301bba0] real-time buffer 97% full! frame dropped!
  37. [00:21:46]          Last message repeated 2 times
  38. [00:21:46]      [dshow @ 0301bba0] real-time buffer 145% full! frame dropped!
  39. [00:21:47]          Last message repeated 35 times
  40. [00:21:47]      [dshow @ 0301e7c0] Estimating duration from bitrate, this may be inaccurate
  41. [00:21:47]      Guessed Channel Layout for  Input Stream #2.0 : stereo
  42. [00:21:47]      Input #2, dshow, from 'audio=FFsplit Microphone Device':
  43. [00:21:47]        Duration: N/A, start: 20514.153000, bitrate: 1411 kb/s
  44. [00:21:47]          Stream #2:0: Audio: pcm_s16le, 44100 Hz, stereo, s16, 1411 kb/s
  45. [00:21:47]      [dshow @ 0301bba0] real-time buffer 145% full! frame dropped!
  46. [00:21:47]      [libx264 @ 03059b40] using cpu capabilities: MMX2 SSE2Fast SSSE3 FastShuffle SSE4.2 AVX
  47. [00:21:47]      [dshow @ 0301bba0] real-time buffer 145% full! frame dropped!
  48. [00:21:47]      [libx264 @ 03059b40] profile High, level 4.0
  49. [00:21:47]      Output #0, mpegts, to '\\.\pipe\midpipeIN':
  50. [00:21:47]        Metadata:
  51. [00:21:47]          encoder         : Lavf54.63.100
  52. [00:21:47]          Stream #0:0: Audio: aac, 44100 Hz, stereo, fltp, 320 kb/s
  53. [00:21:47]          Stream #0:1: Video: h264, yuv420p, 1366x720, q=-1--1, 90k tbn, 60 tbc
  54. [00:21:47]      Stream mapping:
  55. [00:21:47]        Stream #1:0 (pcm_s16le) -> amix:input0 (graph 0)
  56. [00:21:47]        Stream #2:0 (pcm_s16le) -> amix:input1 (graph 0)
  57. [00:21:47]        amix (graph 0) -> Stream #0:0 (aac)
  58. [00:21:47]        Stream #0:0 -> #0:1 (rawvideo -> libx264)
  59. [00:21:47]      Press [q] to stop, [?] for help
  60. [00:21:47]      [adts @ 0d51cae0] Encoder did not produce proper pts, making some up.
  61. [00:21:47]      [dshow @ 0301bba0] real-time buffer 97% full! frame dropped!
  62. [00:21:47]      [dshow @ 0301bba0] real-time buffer 145% full! frame dropped!
  63. [00:21:56]          Last message repeated 538 times
  64. [00:21:56]      [dshow @ 0161dac0] real-time buffer 62% full! frame dropped!
  65. [00:21:56]      [dshow @ 0301bba0] real-time buffer 145% full! frame dropped!
  66. [00:21:56]          Last message repeated 1 times
  67. [00:21:56]      [dshow @ 0161dac0] real-time buffer 62% full! frame dropped!
  68. [00:21:56]      [dshow @ 0301bba0] real-time buffer 145% full! frame dropped!
  69. [00:21:56]          Last message repeated 1 times
  70. [00:21:56]      [dshow @ 0161dac0] real-time buffer 62% full! frame dropped!
  71. [00:21:56]      [dshow @ 0301bba0] real-time buffer 145% full! frame dropped!
  72. [00:21:56]          Last message repeated 1 times
  73. [00:21:56]      [dshow @ 0161dac0] real-time buffer 62% full! frame dropped!
  74. [00:21:56]      [dshow @ 0301bba0] real-time buffer 145% full! frame dropped!

This paste is large and only partially shown.
View full paste

View raw paste Reply